<?xml version="1.0" standalone="no"?>
<!DOCTYPE svg PUBLIC "-//W3C//DTD SVG 1.1//EN" "http://www.w3.org/Graphics/SVG/1.1/DTD/svg11.dtd" >
<svg xmlns="http://www.w3.org/2000/svg" xmlns:xlink="http://www.w3.org/1999/xlink" version="1.1">
<metadata>
Created by FontForge 20170731 at Mon Jun 15 20:27:56 2020
 By Aleksey,,,
Copyright 2020 The Kanit Project Authors (https://github.com/cadsondemak/kanit)
</metadata>
<defs>
<font id="Kanit-Light" horiz-adv-x="0" >
  <font-face 
    font-family="Kanit Light"
    font-weight="300"
    font-stretch="normal"
    units-per-em="1000"
    panose-1="0 0 0 0 0 0 0 0 0 0"
    ascent="800"
    descent="-200"
    x-height="474"
    cap-height="644"
    bbox="-574 -339 1152 1036"
    underline-thickness="50"
    underline-position="-175"
    unicode-range="U+000D-FB02"
  />
<missing-glyph horiz-adv-x="488" 
d="M38 0v714h411v-714h-411zM89 51h309v612h-309v-612z" />
    <glyph glyph-name="fi" unicode="fi" horiz-adv-x="514" 
d="M101 0v409h-71v65h71v55q0 71 49.5 116t128.5 45q67 0 107 -15v-62q-15 5 -38.5 8t-47.5 3q-117 0 -117 -95v-55h261v-474h-82v409h-179v-409h-82z" />
    <glyph glyph-name="fl" unicode="fl" horiz-adv-x="514" 
d="M101 0v409h-71v65h71v55q0 71 49.5 116t128.5 45q67 0 107 -15h58v-675h-82v409h-179v-409h-82zM183 474h179v140q-15 5 -29 7.5t-33 2.5q-117 0 -117 -95v-55z" />
    <glyph glyph-name="uni0E240E45" unicode="&#xe24;&#xe45;" horiz-adv-x="875" 
d="M468 -160v507q0 75 -35 104t-120 29q-56 0 -104.5 -15.5t-74.5 -41.5v-21l117 -28v-62q-38 -10 -56.5 -31.5t-18.5 -63.5v-101q0 -49 47 -49h57v-67h-94q-43 0 -67.5 26.5t-24.5 69.5v123q0 41 19 72.5t62 44.5l-113 26v96q38 35 101.5 63.5t149.5 28.5q89 0 144 -28
q30 12 70.5 20t81.5 8q103 0 149.5 -45.5t46.5 -146.5v-518h-82v509q0 45 -9 74t-36.5 43t-83.5 14q-36 0 -78 -9q34 -48 34 -127v-504h-82z" />
    <glyph glyph-name="uni0E260E45" unicode="&#xe26;&#xe45;" horiz-adv-x="910" 
d="M497 -160v507q0 75 -35 104t-120 29q-56 0 -104.5 -15.5t-74.5 -41.5v-21l123 -28v-62q-37 -11 -50.5 -31t-13.5 -64v-107q0 -110 -103 -110h-62v67h40q43 0 43 48v104q0 41 14 72t56 45l-119 26v96q38 35 101.5 63.5t149.5 28.5q93 0 149 -30v2q30 12 71 20t82 8
q103 0 149.5 -45.5t46.5 -146.5v-518h-82v509q0 45 -9 74t-36.5 43t-83.5 14q-39 0 -83 -10q33 -48 33 -126v-504h-82z" />
    <glyph glyph-name=".notdef" horiz-adv-x="488" 
d="M38 0v714h411v-714h-411zM89 51h309v612h-309v-612z" />
    <glyph glyph-name=".null" horiz-adv-x="500" 
 />
    <glyph glyph-name=".null" horiz-adv-x="500" 
 />
    <glyph glyph-name="nonmarkingreturn" horiz-adv-x="333" 
 />
    <glyph glyph-name="CR" unicode="&#xd;" horiz-adv-x="230" 
 />
    <glyph glyph-name="space" unicode=" " horiz-adv-x="230" 
 />
    <glyph glyph-name="exclam" unicode="!" horiz-adv-x="190" 
d="M60 154l-6 333v157h82v-157l-6 -333h-70zM50 0v65h90v-65h-90z" />
    <glyph glyph-name="quotedbl" unicode="&#x22;" horiz-adv-x="321" 
d="M197 467v177h74l-13 -177h-61zM50 467v177h74l-13 -177h-61z" />
    <glyph glyph-name="numbersign" unicode="#" horiz-adv-x="700" 
d="M84 0l56 180h-90v57h108l53 169h-114v58h132l57 180h72l-57 -180h188l57 180h73l-57 -180h88v-58h-106l-54 -169h113v-57h-131l-56 -180h-72l56 180h-189l-56 -180h-71zM229 237h189l53 169h-188z" />
    <glyph glyph-name="dollar" unicode="$" horiz-adv-x="556" 
d="M247 -86v76q-113 2 -182 30v73q41 -16 87 -24.5t95 -8.5v237q-4 0 -5 1q-106 26 -149 67.5t-43 111.5q0 74 48.5 120.5t148.5 54.5v78h64v-77q49 -1 90.5 -8.5t65.5 -15.5v-72q-34 12 -74 19t-82 8v-228q75 -19 117.5 -45.5t60 -62t17.5 -80.5q0 -76 -49 -121t-146 -54
v-79h-64zM247 372v209q-56 -7 -85.5 -32t-29.5 -72q0 -42 25 -64t90 -41zM311 63q56 7 84.5 31t28.5 74q0 45 -25.5 69t-87.5 43v-217z" />
    <glyph glyph-name="percent" unicode="%" horiz-adv-x="713" 
d="M188 365q-70 0 -104 38.5t-34 99.5q0 70 34 110.5t104 40.5q69 0 103 -40.5t34 -110.5q0 -61 -34 -99.5t-103 -38.5zM146 0l342 644h77l-342 -644h-77zM188 420q44 0 62 22t18 62q0 50 -19 72t-61 22t-61 -22t-19 -72q0 -40 18.5 -62t61.5 -22zM526 -10q-70 0 -104 38.5
t-34 99.5q0 70 34 110.5t104 40.5q69 0 103 -40.5t34 -110.5q0 -61 -34 -99.5t-103 -38.5zM526 45q44 0 62 22t18 62q0 50 -19 72t-61 22t-61 -22t-19 -72q0 -40 18.5 -62t61.5 -22z" />
    <glyph glyph-name="ampersand" unicode="&#x26;" horiz-adv-x="660" 
d="M270 -10q-100 0 -160 44t-60 118q0 68 42 117t115 87q-39 39 -66 73t-27 82q0 60 41.5 101.5t117.5 41.5q74 0 115 -39t41 -104q0 -54 -29 -91t-83 -75l166 -169q17 37 17 94v14h65v-14q0 -39 -9 -76t-26 -64l90 -91l-50 -45l-80 79q-35 -43 -91 -63t-129 -20zM266 385
q47 29 71 55.5t24 67.5q0 38 -20.5 60.5t-67.5 22.5q-48 0 -69.5 -24t-21.5 -59q0 -32 22.5 -59t61.5 -64zM270 49q58 0 99.5 17.5t70.5 52.5l-183 187q-65 -30 -96.5 -64.5t-31.5 -87.5q0 -52 40 -78.5t101 -26.5z" />
    <glyph glyph-name="quotesingle" unicode="'" horiz-adv-x="174" 
d="M50 467v177h74l-13 -177h-61z" />
    <glyph glyph-name="parenleft" unicode="(" horiz-adv-x="310" 
d="M187 -72q-51 44 -81 106t-43 132.5t-13 136.5t13 136t43 132.5t81 106.5h93q-79 -67 -113.5 -163t-34.5 -212q0 -117 34.5 -212t113.5 -163h-93z" />
    <glyph glyph-name="parenright" unicode=")" horiz-adv-x="310" 
d="M30 -72q80 68 114 163t34 212q0 116 -34 212t-114 163h94q51 -44 81 -106.5t42.5 -132.5t12.5 -136t-12.5 -136.5t-42.5 -132.5t-81 -106h-94z" />
    <glyph glyph-name="asterisk" unicode="*" horiz-adv-x="428" 
d="M128 335l-50 37l92 103l-120 49l26 54l110 -53l-4 119h65l-4 -119l109 53l26 -54l-121 -49l93 -103l-50 -37l-86 112z" />
    <glyph glyph-name="plus" unicode="+" horiz-adv-x="477" 
d="M205 88v148h-155v65h155v154h67v-154h155v-65h-155v-148h-67z" />
    <glyph glyph-name="comma" unicode="," horiz-adv-x="202" 
d="M50 -120l28 177h74l-42 -177h-60z" />
    <glyph glyph-name="hyphen" unicode="-" horiz-adv-x="477" 
d="M50 236v65h377v-65h-377z" />
    <glyph glyph-name="period" unicode="." horiz-adv-x="174" 
d="M50 0v69h74v-69h-74z" />
    <glyph glyph-name="slash" unicode="/" horiz-adv-x="417" 
d="M50 0l234 662h83l-234 -662h-83z" />
    <glyph glyph-name="zero" unicode="0" horiz-adv-x="647" 
d="M324 -10q-97 0 -157.5 39t-88.5 112t-28 173q0 108 26 184t86 116t162 40q101 0 161 -40t86 -116t26 -184q0 -100 -27.5 -173t-87.5 -112t-158 -39zM324 60q71 0 112.5 31.5t60 89t18.5 133.5q0 131 -41.5 200.5t-149.5 69.5q-72 0 -114 -31t-60 -91.5t-18 -147.5
q0 -76 18.5 -133.5t61 -89t112.5 -31.5z" />
    <glyph glyph-name="one" unicode="1" horiz-adv-x="304" 
d="M152 0v574l-102 -18v69l184 29v-654h-82z" />
    <glyph glyph-name="two" unicode="2" horiz-adv-x="506" 
d="M50 0v44q26 63 74 115t103 98t85.5 77.5t42.5 61t12 69.5q0 58 -30 88.5t-112 30.5q-37 0 -76 -7.5t-74 -21.5v73q32 11 77 18.5t86 7.5q104 0 157.5 -50.5t53.5 -138.5q0 -48 -17 -84.5t-47 -69t-70 -68.5q-49 -43 -93.5 -84.5t-70.5 -94.5h305v-64h-406z" />
    <glyph glyph-name="three" unicode="3" horiz-adv-x="514" 
d="M223 -10q-44 0 -94 8t-79 19v72q38 -15 79 -22t84 -7q86 0 127.5 26t41.5 91q0 62 -39 90t-109 28h-93l8 62h77q72 0 107 31.5t35 88.5q0 55 -36.5 81t-116.5 26q-40 0 -80.5 -8t-72.5 -21v71q28 11 73.5 19.5t90.5 8.5q115 0 169.5 -49.5t54.5 -126.5q0 -49 -25.5 -91.5
t-81.5 -59.5q64 -14 92.5 -55.5t28.5 -94.5q0 -94 -65 -140.5t-176 -46.5z" />
    <glyph glyph-name="four" unicode="4" horiz-adv-x="541" 
d="M361 0v148h-331v62l340 434h73v-429h68v-67h-68v-148h-82zM112 213h260v333z" />
    <glyph glyph-name="five" unicode="5" horiz-adv-x="512" 
d="M224 -10q-44 0 -92 7t-79 20v73q74 -30 162 -30q86 0 125.5 32t39.5 100q0 64 -29.5 96t-114.5 32h-186v57l17 267h349l-8 -64h-272l-13 -195h121q113 0 165.5 -48t52.5 -145q0 -94 -60.5 -148t-177.5 -54z" />
    <glyph glyph-name="six" unicode="6" horiz-adv-x="569" 
d="M285 -10q-115 0 -175 58.5t-60 186.5v152q0 80 31.5 140t90 93.5t138.5 33.5q47 0 83 -5.5t65 -15.5v-71q-29 11 -64.5 16.5t-79.5 5.5q-97 0 -141.5 -49.5t-44.5 -132.5v-49q39 29 86.5 42.5t86.5 13.5q110 0 164 -53.5t54 -154.5q0 -94 -57.5 -152.5t-176.5 -58.5z
M285 55q80 0 120 38.5t40 105.5q0 46 -13 78.5t-46 50t-92 17.5q-49 0 -91 -15.5t-75 -39.5v-78q0 -157 157 -157z" />
    <glyph glyph-name="seven" unicode="7" horiz-adv-x="498" 
d="M127 0l245 580h-332v64h418v-57l-248 -587h-83z" />
    <glyph glyph-name="eight" unicode="8" horiz-adv-x="584" 
d="M292 -10q-118 0 -180 45.5t-62 134.5q0 58 31.5 102t92.5 61q-56 18 -81 56.5t-25 84.5q0 82 56 131t168 49q116 0 170 -49t54 -131q0 -48 -24.5 -89t-86.5 -62q68 -17 98.5 -55t30.5 -98q0 -89 -61.5 -134.5t-180.5 -45.5zM320 349q62 15 92 42.5t30 81.5
q0 57 -38.5 86.5t-111.5 29.5q-72 0 -111 -28.5t-39 -86.5q0 -43 27 -71.5t75 -38.5zM292 55q168 0 168 116q0 53 -31.5 77.5t-90.5 36.5l-87 18q-58 -12 -92.5 -41.5t-34.5 -89.5t43 -88.5t125 -28.5z" />
    <glyph glyph-name="nine" unicode="9" horiz-adv-x="569" 
d="M259 -10q-46 0 -82.5 5.5t-65.5 15.5v71q29 -10 64.5 -16t79.5 -6q98 0 142 50t44 132v49q-39 -28 -86.5 -42t-86.5 -14q-110 0 -164 54t-54 154q0 95 58 153t176 58q116 0 175.5 -58.5t59.5 -186.5v-152q0 -80 -31.5 -140t-90 -93.5t-138.5 -33.5zM275 299q49 0 91 15.5
t75 39.5v78q0 157 -157 157q-80 0 -120 -38.5t-40 -105.5q0 -45 13 -78t46 -50.5t92 -17.5z" />
    <glyph glyph-name="colon" unicode=":" horiz-adv-x="173" 
d="M50 329v69h73v-69h-73zM50 28v69h73v-69h-73z" />
    <glyph glyph-name="semicolon" unicode=";" horiz-adv-x="202" 
d="M80 329v69h72v-69h-72zM50 -103l28 177h74l-42 -177h-60z" />
    <glyph glyph-name="less" unicode="&#x3c;" horiz-adv-x="547" 
d="M497 56l-447 206v67l447 206v-77l-361 -162l361 -163v-77z" />
    <glyph glyph-name="equal" unicode="=" horiz-adv-x="482" 
d="M50 311v59h382v-59h-382zM50 168v60h382v-60h-382z" />
    <glyph glyph-name="greater" unicode="&#x3e;" horiz-adv-x="547" 
d="M50 56v77l362 163l-362 162v77l447 -206v-67z" />
    <glyph glyph-name="question" unicode="?" horiz-adv-x="493" 
d="M166 155v23q0 45 20 77t49.5 56.5t57.5 48.5t48 50.5t20 63.5q0 58 -32.5 84t-118.5 26q-44 0 -86 -10t-74 -26v70q32 17 78.5 26.5t100.5 9.5q107 0 160.5 -47.5t53.5 -131.5q0 -55 -27.5 -89.5t-72.5 -72.5q-29 -24 -50.5 -43t-33 -40.5t-11.5 -55.5v-19h-82zM162 0v65
h90v-65h-90z" />
    <glyph glyph-name="at" unicode="@" horiz-adv-x="768" 
d="M391 -132q-72 0 -134 16.5t-108.5 54t-72.5 98.5t-26 151q0 175 92.5 256t260.5 81q156 0 235.5 -70t79.5 -203q0 -96 -42.5 -155t-134.5 -59h-17q-27 -27 -66 -42.5t-95 -15.5q-67 0 -108 34t-41 92q0 36 15 67t48 50t88 19h127v20q0 35 -9 54t-32 26.5t-66 7.5
q-30 0 -62 -5t-61 -15v54q26 11 62.5 16.5t75.5 5.5q78 0 116 -34.5t38 -108.5v-166q52 0 73.5 38.5t21.5 116.5q0 107 -58.5 157t-187.5 50q-143 0 -213.5 -61.5t-70.5 -210.5q0 -100 35.5 -155t96.5 -76.5t138 -21.5q110 0 173 19v-67q-31 -7 -75 -12.5t-96 -5.5zM370 34
q83 0 122 51v102h-117q-58 0 -77.5 -22t-19.5 -60t22.5 -54.5t69.5 -16.5z" />
    <glyph glyph-name="A" unicode="A" horiz-adv-x="685" 
d="M50 0l245 644h96l244 -644h-84l-68 177h-280l-68 -177h-85zM217 242h251l-126 331z" />
    <glyph glyph-name="B" unicode="B" horiz-adv-x="627" 
d="M70 0v644h298q95 0 139.5 -44.5t44.5 -125.5q0 -53 -21.5 -88.5t-59.5 -53.5q49 -12 77.5 -46.5t28.5 -101.5q0 -94 -49 -139t-144 -45h-314zM152 362h211q61 0 86.5 29.5t25.5 76.5q0 56 -26 84.5t-101 28.5h-196v-219zM152 62h218q65 0 95 28.5t30 96.5
q0 56 -29.5 84.5t-108.5 28.5h-205v-238z" />
    <glyph glyph-name="C" unicode="C" horiz-adv-x="595" 
d="M359 -10q-104 0 -172.5 39.5t-102.5 111t-34 167.5q0 105 32 183t100 120.5t176 42.5q56 0 101.5 -8t85.5 -22v-72q-40 15 -85 23.5t-95 8.5q-87 0 -138 -33t-73 -95t-22 -148q0 -119 56.5 -183.5t178.5 -64.5q45 0 91.5 7t86.5 22v-73q-39 -12 -84.5 -19t-101.5 -7z" />
    <glyph glyph-name="D" unicode="D" horiz-adv-x="642" 
d="M70 0v644h252q140 0 205 -76t65 -250q0 -165 -63.5 -241.5t-206.5 -76.5h-252zM152 64h155q68 0 113 20.5t67.5 75.5t22.5 158q0 102 -20.5 159t-65 79.5t-117.5 22.5h-155v-515z" />
    <glyph glyph-name="E" unicode="E" horiz-adv-x="555" 
d="M70 0v644h435v-65h-353v-225h317v-64h-317v-226h353v-64h-435z" />
    <glyph glyph-name="F" unicode="F" horiz-adv-x="522" 
d="M70 0v644h422v-65h-340v-225h303v-64h-303v-290h-82z" />
    <glyph glyph-name="G" unicode="G" horiz-adv-x="639" 
d="M359 -10q-104 0 -172.5 39.5t-102.5 111t-34 167.5q0 105 32 183t100 120.5t176 42.5q56 0 101.5 -8t85.5 -22v-72q-40 15 -85 23.5t-95 8.5q-87 0 -138 -33t-73 -95t-22 -148q0 -119 55 -183.5t177 -64.5q43 0 83 7t71 19v205h-172v56h243v-306q-29 -19 -84.5 -35
t-145.5 -16z" />
    <glyph glyph-name="H" unicode="H" horiz-adv-x="644" 
d="M70 0v644h82v-290h340v290h82v-644h-82v290h-340v-290h-82z" />
    <glyph glyph-name="I" unicode="I" horiz-adv-x="222" 
d="M70 0v644h82v-644h-82z" />
    <glyph glyph-name="J" unicode="J" horiz-adv-x="427" 
d="M165 -10q-40 0 -74.5 6.5t-60.5 16.5v70q24 -10 58 -17t67 -7q71 0 98 30t27 94v461h82v-467q0 -88 -48.5 -137.5t-148.5 -49.5z" />
    <glyph glyph-name="K" unicode="K" horiz-adv-x="607" 
d="M70 0v644h82v-319l301 319h96l-240 -258l248 -386h-88l-212 333l-105 -111v-222h-82z" />
    <glyph glyph-name="L" unicode="L" horiz-adv-x="525" 
d="M70 0v644h82v-580h343v-64h-425z" />
    <glyph glyph-name="M" unicode="M" horiz-adv-x="752" 
d="M70 0v644h88l218 -447l218 447h88v-644h-81v516l-197 -404h-55l-198 404v-516h-81z" />
    <glyph glyph-name="N" unicode="N" horiz-adv-x="663" 
d="M70 0v644h74l367 -518v518h82v-644h-75l-366 517v-517h-82z" />
    <glyph glyph-name="O" unicode="O" horiz-adv-x="694" 
d="M347 -10q-151 0 -224 79.5t-73 252.5t73 252.5t224 79.5q152 0 224.5 -79.5t72.5 -252.5t-72.5 -252.5t-224.5 -79.5zM347 60q73 0 120.5 25t71 82.5t23.5 154.5t-23.5 154.5t-71 82.5t-120.5 25t-120.5 -25t-71 -82.5t-23.5 -154.5t23.5 -154.5t71 -82.5t120.5 -25z" />
    <glyph glyph-name="P" unicode="P" horiz-adv-x="582" 
d="M70 0v644h272q108 0 159 -58t51 -150q0 -94 -57.5 -148.5t-156.5 -54.5h-186v-233h-82zM152 297h173q72 0 108.5 37.5t36.5 101.5q0 68 -34.5 105.5t-105.5 37.5h-178v-282z" />
    <glyph glyph-name="Q" unicode="Q" horiz-adv-x="694" 
d="M441 -172q-71 0 -103.5 43.5t-34.5 120.5q-128 11 -190.5 90.5t-62.5 239.5q0 173 73 252.5t224 79.5q152 0 224.5 -79.5t72.5 -252.5q0 -163 -64 -242.5t-197 -88.5q1 -52 16.5 -72.5t57.5 -20.5q36 0 71 10v-69q-16 -4 -40 -7.5t-47 -3.5zM347 60q73 0 120.5 25
t71 82.5t23.5 154.5t-23.5 154.5t-71 82.5t-120.5 25t-120.5 -25t-71 -82.5t-23.5 -154.5t23.5 -154.5t71 -82.5t120.5 -25z" />
    <glyph glyph-name="R" unicode="R" horiz-adv-x="602" 
d="M70 0v644h283q104 0 151.5 -54t47.5 -146q0 -71 -34.5 -118t-102.5 -63q20 -12 30.5 -27.5t21.5 -41.5l84 -194h-84l-82 187q-13 30 -31.5 43t-65.5 13h-136v-243h-82zM152 307h178q65 0 102.5 32.5t37.5 104.5q0 135 -129 135h-189v-272z" />
    <glyph glyph-name="S" unicode="S" horiz-adv-x="556" 
d="M259 -10q-120 0 -194 30v73q42 -16 89.5 -24.5t97.5 -8.5q86 0 129 23.5t43 84.5q0 38 -17.5 60.5t-57.5 38t-107 31.5q-106 26 -149 67.5t-43 111.5q0 82 59 129.5t180 47.5q56 0 104 -8t74 -17v-72q-36 13 -78 20t-87 7q-82 0 -126 -24t-44 -83q0 -33 15.5 -53.5
t52.5 -35t103 -30.5q79 -19 123 -45.5t62 -62.5t18 -82q0 -85 -62 -131.5t-185 -46.5z" />
    <glyph glyph-name="T" unicode="T" horiz-adv-x="570" 
d="M244 0v579h-214v65h510v-65h-214v-579h-82z" />
    <glyph glyph-name="U" unicode="U" horiz-adv-x="671" 
d="M336 -10q-132 0 -201.5 63t-69.5 183v408h82v-409q0 -88 49.5 -131.5t139.5 -43.5q89 0 138.5 43.5t49.5 131.5v409h82v-408q0 -120 -69.5 -183t-200.5 -63z" />
    <glyph glyph-name="V" unicode="V" horiz-adv-x="685" 
d="M295 0l-245 644h85l207 -561l208 561h85l-244 -644h-96z" />
    <glyph glyph-name="W" unicode="W" horiz-adv-x="861" 
d="M200 0l-150 644h81l121 -530l139 459v71h67l150 -530l123 530h80l-149 -644h-87l-140 490l-147 -490h-88z" />
    <glyph glyph-name="X" unicode="X" horiz-adv-x="652" 
d="M50 0l227 320l-224 324h94l179 -263l179 263h94l-224 -324l227 -320h-95l-181 257l-181 -257h-95z" />
    <glyph glyph-name="Y" unicode="Y" horiz-adv-x="642" 
d="M280 0v240l-230 404h85l186 -334l186 334h85l-230 -404v-240h-82z" />
    <glyph glyph-name="Z" unicode="Z" horiz-adv-x="572" 
d="M50 0v46l368 533h-351v65h455v-51l-365 -529h370v-64h-477z" />
    <glyph glyph-name="bracketleft" unicode="[" horiz-adv-x="344" 
d="M50 -99v805h251l3 -65h-172v-676h172l-3 -64h-251z" />
    <glyph glyph-name="backslash" unicode="\" horiz-adv-x="436" 
d="M303 -54l-253 716h84l252 -716h-83z" />
    <glyph glyph-name="bracketright" unicode="]" horiz-adv-x="344" 
d="M43 -99l-3 64h172v676h-172l3 65h251v-805h-251z" />
    <glyph glyph-name="asciicircum" unicode="^" horiz-adv-x="459" 
d="M50 392l147 232h63l149 -232h-77l-102 172l-102 -172h-78z" />
    <glyph glyph-name="underscore" unicode="_" horiz-adv-x="549" 
d="M50 -64v64h449v-64h-449z" />
    <glyph glyph-name="grave" unicode="`" horiz-adv-x="245" 
d="M129 522l-79 168h74l71 -168h-66z" />
    <glyph glyph-name="a" unicode="a" horiz-adv-x="541" 
d="M217 -10q-45 0 -83 16t-61 47.5t-23 79.5q0 65 43 106.5t140 41.5h165v29q0 39 -10.5 62t-39.5 33t-85 10q-43 0 -83 -7t-75 -19v68q32 12 75.5 19.5t93.5 7.5q101 0 151.5 -41t50.5 -133v-310h-69l-6 54q-31 -32 -75 -48t-109 -16zM238 57q52 0 92 18.5t68 50.5v92h-163
q-56 0 -80 -21t-24 -64t29 -59.5t78 -16.5z" />
    <glyph glyph-name="b" unicode="b" horiz-adv-x="575" 
d="M311 -10q-53 0 -92.5 14.5t-72.5 45.5l-6 -50h-70v674h82v-235q65 45 158 45q101 0 158 -57.5t57 -185.5q0 -129 -57 -190t-157 -61zM290 56q83 0 118 46t35 139q0 97 -37.5 137t-117.5 40q-43 0 -77 -12.5t-59 -34.5v-258q27 -29 62 -43t76 -14z" />
    <glyph glyph-name="c" unicode="c" horiz-adv-x="462" 
d="M294 -10q-124 0 -184 64.5t-60 182.5q0 125 68 186t183 61q47 0 78 -6.5t60 -20.5v-65q-54 26 -123 26q-88 0 -136 -41.5t-48 -139.5q0 -94 42 -137.5t139 -43.5q69 0 127 26v-66q-31 -13 -66.5 -19.5t-79.5 -6.5z" />
    <glyph glyph-name="d" unicode="d" horiz-adv-x="575" 
d="M264 -10q-100 0 -157 55.5t-57 184.5q0 128 59.5 191t159.5 63q89 0 154 -45v235h82v-674h-70l-6 50q-33 -31 -72.5 -45.5t-92.5 -14.5zM285 56q41 0 76 14t62 43v258q-25 22 -59 34.5t-77 12.5q-79 0 -117 -45.5t-38 -142.5q0 -93 35 -133.5t118 -40.5z" />
    <glyph glyph-name="e" unicode="e" horiz-adv-x="533" 
d="M303 -10q-127 0 -190 61t-63 188q0 114 54.5 179.5t172.5 65.5q70 0 115.5 -25.5t68 -70t22.5 -100.5v-89h-351q4 -54 23.5 -85t59 -44.5t104.5 -13.5q73 0 134 25v-64q-31 -13 -69.5 -20t-80.5 -7zM132 258h278v39q0 58 -30.5 89.5t-100.5 31.5q-85 0 -116 -40t-31 -120
z" />
    <glyph glyph-name="f" unicode="f" horiz-adv-x="354" 
d="M101 0v409h-71v65h71v69q0 68 37.5 107.5t110.5 39.5q26 0 47.5 -4t39.5 -11v-62q-31 11 -66 11q-51 0 -69 -18.5t-18 -62.5v-69h128l-4 -65h-124v-409h-82z" />
    <glyph glyph-name="g" unicode="g" horiz-adv-x="547" 
d="M254 -176q-53 0 -103.5 6t-86.5 19v68q40 -13 90 -20t96 -7q75 0 110 9t35 46q0 26 -18.5 37t-65.5 11h-126q-131 0 -131 88q0 29 18.5 55.5t55.5 37.5q-40 20 -59 55.5t-19 84.5q0 89 51.5 129.5t157.5 40.5q22 0 45.5 -3.5t36.5 -6.5h171l-3 -56h-86q23 -19 33 -45.5
t10 -58.5q0 -79 -46 -122.5t-141 -43.5q-16 0 -28.5 1.5t-29.5 3.5q-31 -1 -58 -17.5t-27 -42.5q0 -17 13.5 -25t49.5 -8h131q71 0 109 -28.5t38 -83.5q0 -70 -58 -97t-165 -27zM259 210q71 0 98 23t27 81t-28.5 84t-96.5 26q-67 0 -97 -25t-30 -85q0 -55 28.5 -79.5
t98.5 -24.5z" />
    <glyph glyph-name="h" unicode="h" horiz-adv-x="570" 
d="M70 0v674h82v-251q33 27 77.5 44t103.5 17q86 0 129 -42t43 -132v-310h-82v307q0 62 -27.5 86.5t-90.5 24.5q-40 0 -82.5 -17.5t-70.5 -45.5v-355h-82z" />
    <glyph glyph-name="i" unicode="i" horiz-adv-x="276" 
d="M115 585v75h91v-75h-91zM123 0v409h-73l8 65h147v-474h-82z" />
    <glyph glyph-name="j" unicode="j" horiz-adv-x="294" 
d="M133 585v75h91v-75h-91zM79 -234q-50 0 -89 14v65q17 -5 32.5 -7.5t28.5 -2.5q54 0 72.5 18t18.5 60v496h-73l8 65h147v-568q0 -64 -37 -102t-108 -38z" />
    <glyph glyph-name="k" unicode="k" horiz-adv-x="515" 
d="M70 0v674h82v-409l222 209h95l-194 -188l205 -286h-86l-171 242l-71 -67v-175h-82z" />
    <glyph glyph-name="l" unicode="l" horiz-adv-x="263" 
d="M173 -10q-48 0 -75.5 25.5t-27.5 86.5v572h82v-563q0 -30 10 -41t31 -11q23 0 45 6v-65q-16 -6 -32 -8t-33 -2z" />
    <glyph glyph-name="m" unicode="m" horiz-adv-x="855" 
d="M70 0v474h74l5 -54q38 30 80.5 47t91.5 17q53 0 82.5 -17t43.5 -48q34 28 78 46.5t105 18.5q81 0 120.5 -41.5t39.5 -127.5v-315h-81v307q0 63 -26.5 87t-85.5 24q-39 0 -74.5 -13t-60.5 -40q6 -25 6 -58v-307h-77v305q0 60 -20 86.5t-79 26.5q-40 0 -76.5 -17.5
t-64.5 -43.5v-357h-81z" />
    <glyph glyph-name="n" unicode="n" horiz-adv-x="570" 
d="M70 0v474h74l5 -54q34 28 79.5 46t104.5 18q90 0 131 -42t41 -132v-310h-82v307q0 62 -25 86.5t-96 24.5q-44 0 -83 -16t-67 -44v-358h-82z" />
    <glyph glyph-name="o" unicode="o" horiz-adv-x="574" 
d="M287 -10q-124 0 -180.5 63.5t-56.5 183.5q0 119 57 183t180 64t180 -64t57 -183q0 -120 -56 -183.5t-181 -63.5zM287 60q85 0 120 42.5t35 134.5t-35.5 134.5t-119.5 42.5t-119.5 -42.5t-35.5 -134.5t35 -134.5t120 -42.5z" />
    <glyph glyph-name="p" unicode="p" horiz-adv-x="575" 
d="M70 -216v690h70l6 -50q33 31 72.5 45.5t92.5 14.5q100 0 157 -55.5t57 -184.5q0 -128 -57 -191t-158 -63q-93 0 -158 45v-251h-82zM288 56q80 0 117.5 45.5t37.5 142.5q0 93 -35 133.5t-118 40.5q-41 0 -76 -14t-62 -43v-258q25 -22 59 -34.5t77 -12.5z" />
    <glyph glyph-name="q" unicode="q" horiz-adv-x="561" 
d="M538 -242q-56 0 -85.5 30t-29.5 94v153q-65 -45 -158 -45q-100 0 -157.5 53t-57.5 181q0 129 57 194.5t157 65.5q53 0 92.5 -14.5t72.5 -45.5l6 50h70v-588q0 -34 11 -46.5t42 -12.5q9 0 22 2t21 4v-65q-27 -10 -63 -10zM287 56q43 0 77 12.5t59 34.5v258q-27 29 -62 43
t-76 14q-83 0 -118 -50.5t-35 -143.5q0 -97 38 -132.5t117 -35.5z" />
    <glyph glyph-name="r" unicode="r" horiz-adv-x="346" 
d="M70 0v474h74l6 -60q35 23 82.5 42t93.5 28v-64q-28 -6 -61 -16.5t-63 -23.5t-50 -27v-353h-82z" />
    <glyph glyph-name="s" unicode="s" horiz-adv-x="457" 
d="M219 -10q-46 0 -87.5 6t-69.5 16v72q34 -12 71.5 -18t74.5 -6q63 0 90 13.5t27 50.5q0 27 -14.5 41t-44 25t-75.5 26q-41 14 -73 29t-50 40.5t-18 68.5q0 63 44 96.5t142 33.5q38 0 73 -5.5t61 -13.5v-72q-63 21 -121 21q-62 0 -89.5 -12.5t-27.5 -46.5q0 -23 12.5 -36.5
t39 -23t68.5 -23.5q55 -17 89 -35t50 -44t16 -68q0 -70 -49 -102.5t-139 -32.5z" />
    <glyph glyph-name="t" unicode="t" horiz-adv-x="353" 
d="M243 -10q-70 0 -105.5 37.5t-35.5 104.5v277h-72v65h72v117l82 25v-142h131l-5 -65h-126v-273q0 -43 19.5 -61.5t67.5 -18.5q26 0 57 10v-62q-37 -14 -85 -14z" />
    <glyph glyph-name="u" unicode="u" horiz-adv-x="570" 
d="M237 -10q-85 0 -128.5 47t-43.5 137v300h82v-303q0 -59 29.5 -87t91.5 -28q44 0 83 16t67 44v358h82v-474h-74l-5 54q-34 -28 -81 -46t-103 -18z" />
    <glyph glyph-name="v" unicode="v" horiz-adv-x="564" 
d="M236 0l-186 474h85l147 -398l147 398h85l-186 -474h-92z" />
    <glyph glyph-name="w" unicode="w" horiz-adv-x="736" 
d="M174 0l-124 474h82l93 -381l106 326v55h63l117 -381l93 381h82l-124 -474h-82l-111 344l-113 -344h-82z" />
    <glyph glyph-name="x" unicode="x" horiz-adv-x="529" 
d="M40 0l180 241l-174 233h89l129 -177l130 177h88l-172 -233l179 -241h-89l-136 185l-135 -185h-89z" />
    <glyph glyph-name="y" unicode="y" horiz-adv-x="584" 
d="M159 -176q-47 0 -82 13v66q17 -6 31.5 -8t29.5 -2q34 0 53.5 12t34.5 36.5t33 63.5l-209 469h85l165 -382l170 382h84l-199 -453q-25 -57 -51 -101.5t-60 -70t-85 -25.5z" />
    <glyph glyph-name="z" unicode="z" horiz-adv-x="485" 
d="M50 0v45l279 364h-266v65h365v-51l-275 -359h282v-64h-385z" />
    <glyph glyph-name="braceleft" unicode="{" horiz-adv-x="296" 
d="M207 -104q-60 0 -85 23.5t-25 80.5v171q0 46 -12 70.5t-55 29.5v54q43 5 55 29.5t12 70.5v171q0 57 25 80.5t85 23.5h49v-65h-34q-24 0 -33.5 -9t-9.5 -38v-197q0 -28 -13 -55t-45 -38q32 -10 45 -37.5t13 -54.5v-198q0 -29 9.5 -38t33.5 -9h34v-65h-49z" />
    <glyph glyph-name="bar" unicode="|" horiz-adv-x="182" 
d="M50 -120v855h82v-855h-82z" />
    <glyph glyph-name="braceright" unicode="}" horiz-adv-x="296" 
d="M40 -104v65h34q24 0 33.5 9t9.5 38v198q0 27 13 54.5t45 37.5q-32 11 -45 38t-13 55v197q0 29 -9.5 38t-33.5 9h-34v65h49q60 0 85 -23.5t25 -80.5v-171q0 -46 12 -70.5t55 -29.5v-54q-43 -5 -55 -29.5t-12 -70.5v-171q0 -57 -25 -80.5t-85 -23.5h-49z" />
    <glyph glyph-name="asciitilde" unicode="~" horiz-adv-x="572" 
d="M406 229q-30 0 -60 10.5t-59.5 25t-59 25t-59.5 10.5q-38 0 -66 -14.5t-52 -45.5v83q17 23 49 37.5t69 14.5q36 0 66 -10.5t58 -25t55.5 -25t58.5 -10.5q38 0 65 14.5t51 45.5v-83q-17 -24 -47.5 -38t-68.5 -14z" />
    <glyph glyph-name="uni00A0" unicode="&#xa0;" horiz-adv-x="230" 
 />
    <glyph glyph-name="exclamdown" unicode="&#xa1;" horiz-adv-x="190" 
d="M50 409v65h90v-65h-90zM54 -170v157l6 333h70l6 -333v-157h-82z" />
    <glyph glyph-name="cent" unicode="&#xa2;" horiz-adv-x="490" 
d="M264 -86v77q-109 8 -161.5 71.5t-52.5 174.5q0 114 57.5 174.5t156.5 70.5v78h62v-77q36 -1 62 -8t51 -18v-65q-51 25 -113 26v-362q60 2 114 26v-66q-48 -20 -114 -25v-77h-62zM264 59v355q-64 -10 -98 -52.5t-34 -124.5t31 -125t101 -53z" />
    <glyph glyph-name="sterling" unicode="&#xa3;" horiz-adv-x="503" 
d="M50 0v65h26q31 0 45 19t14 52v173h-70v65h70v123q0 75 48.5 116t121.5 41q70 0 111 -19v-63q-14 8 -39 12t-48 4q-55 0 -83.5 -21t-28.5 -74v-119h198l-3 -65h-195v-169q0 -25 -5.5 -44t-21.5 -31h263v-65h-403z" />
    <glyph glyph-name="currency" unicode="&#xa4;" horiz-adv-x="573" 
d="M88 60l-38 47l83 62q-32 43 -32 100q0 58 32 99l-82 63l37 46l84 -66q23 20 52 31t62 11t62.5 -11t52.5 -31l85 66l37 -46l-83 -63q15 -20 24 -45.5t9 -53.5t-9 -53.5t-24 -47.5l83 -62l-37 -46l-85 65q-22 -19 -51.5 -30t-62.5 -11t-62.5 11t-52.5 30zM286 144
q35 0 63 17t44.5 45.5t16.5 62.5q0 35 -17 63t-45 45t-62 17t-62 -17t-44 -45t-16 -63q0 -34 16.5 -62.5t44 -45.5t61.5 -17z" />
    <glyph glyph-name="yen" unicode="&#xa5;" horiz-adv-x="642" 
d="M280 0v96h-157v57h157v52h-157v57h144l-217 382h85l186 -334l186 334h85l-218 -382h145v-57h-157v-52h157v-57h-157v-96h-82z" />
    <glyph glyph-name="brokenbar" unicode="&#xa6;" horiz-adv-x="182" 
d="M50 424v311h82v-311h-82zM50 -120v310h82v-310h-82z" />
    <glyph glyph-name="section" unicode="&#xa7;" horiz-adv-x="556" 
d="M259 -10q-120 0 -194 30v73q42 -16 89.5 -24.5t97.5 -8.5q83 0 127.5 23.5t44.5 84.5q0 38 -20 60t-60.5 37t-103.5 30q-70 19 -111.5 40t-60 50t-18.5 71q0 37 18 65q-8 14 -13 31.5t-5 38.5q0 82 59 128t180 46q56 0 104 -8t74 -17v-72q-36 13 -78 20t-87 7
q-82 0 -126 -24t-44 -83q0 -33 15.5 -54t53 -36t102.5 -31q81 -19 125 -40.5t61 -49t17 -67.5q0 -16 -5 -37.5t-12 -35.5q17 -31 17 -71q0 -85 -64 -130.5t-183 -45.5zM430 284q5 15 5 27q0 26 -14.5 42t-50.5 29t-101 29q-51 14 -84.5 26.5t-52.5 31.5q-2 -5 -3.5 -10
t-1.5 -13q0 -24 13.5 -39t47 -26.5t91.5 -26.5q54 -13 93 -31t58 -39z" />
    <glyph glyph-name="dieresis" unicode="&#xa8;" horiz-adv-x="354" 
d="M226 561v75h78v-75h-78zM50 561v75h78v-75h-78z" />
    <glyph glyph-name="copyright" unicode="&#xa9;" horiz-adv-x="764" 
d="M382 -10q-69 0 -129 26t-105.5 71.5t-71.5 105.5t-26 129t26 129t71.5 105.5t105.5 71.5t129 26t129 -26t105.5 -71.5t71.5 -105.5t26 -129t-26 -129t-71.5 -105.5t-105.5 -71.5t-129 -26zM382 50q78 0 139 35t96 96.5t35 140.5t-35 140t-96 96t-139 35q-77 0 -138 -35
t-96 -96t-35 -140t35 -140.5t96 -96.5t138 -35zM381 91q-105 0 -164.5 61.5t-59.5 168.5q0 77 31.5 128t84 76.5t115.5 25.5q43 0 75 -8.5t54 -22.5v-54q-27 14 -56 20.5t-60 6.5q-80 0 -129 -39t-49 -133t42.5 -133.5t130.5 -39.5q30 0 63 8t58 21v-56q-55 -30 -136 -30z
" />
    <glyph glyph-name="ordfeminine" unicode="&#xaa;" horiz-adv-x="347" 
d="M145 380q-39 0 -67 18.5t-28 59.5q0 86 105 86h87v12q0 29 -14 41t-61 12q-43 0 -83 -14v44q18 7 43 11t52 4q55 0 86.5 -23t31.5 -74v-171h-49l-4 29q-19 -18 -42 -26.5t-57 -8.5zM160 421q52 0 82 38v45h-79q-33 0 -46.5 -9.5t-13.5 -34.5q0 -22 15 -30.5t42 -8.5z" />
    <glyph glyph-name="guillemotleft" unicode="&#xab;" horiz-adv-x="602" 
d="M519 80l-254 187v39l254 187l33 -48l-213 -159l213 -158zM304 80l-254 187v39l254 187l33 -48l-213 -159l213 -158z" />
    <glyph glyph-name="logicalnot" unicode="&#xac;" horiz-adv-x="531" 
d="M414 147v156h-364v65h431v-221h-67z" />
    <glyph glyph-name="uni00AD" unicode="&#xad;" horiz-adv-x="477" 
d="M50 236v65h377v-65h-377z" />
    <glyph glyph-name="registered" unicode="&#xae;" horiz-adv-x="764" 
d="M382 -10q-69 0 -129 26t-105.5 71.5t-71.5 105.5t-26 129t26 129t71.5 105.5t105.5 71.5t129 26t129 -26t105.5 -71.5t71.5 -105.5t26 -129t-26 -129t-71.5 -105.5t-105.5 -71.5t-129 -26zM382 50q78 0 139 35t96 96.5t35 140.5t-35 140t-96 96t-139 35q-77 0 -138 -35
t-96 -96t-35 -140t35 -140.5t96 -96.5t138 -35zM228 112v426h188q68 0 104 -35t36 -94q0 -47 -26.5 -79.5t-73.5 -42.5q14 -8 21.5 -19t14.5 -28l54 -128h-61l-55 129q-9 21 -21 26.5t-49 5.5h-70v-161h-62zM290 325h98q51 0 79 15t28 69q0 47 -20.5 62t-66.5 15h-118v-161z
" />
    <glyph glyph-name="macron" unicode="&#xaf;" horiz-adv-x="388" 
d="M50 565v59h288v-59h-288z" />
    <glyph glyph-name="degree" unicode="&#xb0;" horiz-adv-x="319" 
d="M159 504q-44 0 -76.5 30.5t-32.5 77.5t32.5 77.5t76.5 30.5q46 0 78 -30.5t32 -77.5t-32 -77.5t-78 -30.5zM159 557q24 0 40 15.5t16 39.5q0 23 -16 39t-40 16q-23 0 -38.5 -16t-15.5 -39q0 -24 15.5 -39.5t38.5 -15.5z" />
    <glyph glyph-name="plusminus" unicode="&#xb1;" horiz-adv-x="477" 
d="M205 108v148h-155v65h155v154h67v-154h155v-65h-155v-148h-67zM50 0v65h377v-65h-377z" />
    <glyph glyph-name="uni00B2" unicode="&#xb2;" horiz-adv-x="300" 
d="M50 370v32q14 24 34 43.5t45 39.5q35 29 47.5 46.5t12.5 37.5q0 21 -13 29.5t-45 8.5q-17 0 -36 -4t-36 -10v47q14 5 38 9.5t50 4.5q49 0 75 -25t26 -60q0 -30 -13.5 -48.5t-43.5 -46.5q-18 -17 -32.5 -28t-28.5 -29h120v-47h-200z" />
    <glyph glyph-name="uni00B3" unicode="&#xb3;" horiz-adv-x="303" 
d="M133 362q-22 0 -46 3.5t-37 8.5v45q33 -13 71 -13q39 0 55 9.5t16 32.5q0 41 -65 41h-37l3 41h31q32 0 47 10t15 33q0 20 -15.5 28t-48.5 8q-17 0 -34.5 -3.5t-32.5 -8.5v45q13 5 35.5 8.5t44.5 3.5q62 0 87 -21.5t25 -56.5q0 -22 -10.5 -40.5t-34.5 -26.5
q28 -6 39.5 -23t11.5 -40q0 -84 -120 -84z" />
    <glyph glyph-name="acute" unicode="&#xb4;" horiz-adv-x="245" 
d="M50 522l71 168h74l-79 -168h-66z" />
    <glyph glyph-name="uni00B5" unicode="&#xb5;" horiz-adv-x="575" 
d="M70 -143v617h82v-303q0 -59 29.5 -87t91.5 -28q44 0 83 16t67 44v358h82v-474h-74l-5 54q-34 -28 -81 -46t-103 -18q-27 0 -50 6t-40 16v-155h-82z" />
    <glyph glyph-name="paragraph" unicode="&#xb6;" horiz-adv-x="628" 
d="M314 -77v330q-74 0 -134 20t-95 68.5t-35 135.5q0 85 33.5 136t92.5 74t137 23h265v-787h-82v723h-100v-723h-82z" />
    <glyph glyph-name="periodcentered" unicode="&#xb7;" horiz-adv-x="174" 
d="M50 250v69h74v-69h-74z" />
    <glyph glyph-name="cedilla" unicode="&#xb8;" horiz-adv-x="313" 
d="M120 -240q-16 0 -37.5 2.5t-32.5 5.5v50q29 -8 63 -8q47 0 68.5 11t21.5 42q0 29 -21 37.5t-64 8.5h-37l29 91h58l-16 -48q55 0 83 -23.5t28 -66.5q0 -49 -34.5 -75.5t-108.5 -26.5z" />
    <glyph glyph-name="uni00B9" unicode="&#xb9;" horiz-adv-x="212" 
d="M124 370v228l-74 -16v46l132 26v-284h-58z" />
    <glyph glyph-name="ordmasculine" unicode="&#xba;" horiz-adv-x="365" 
d="M182 380q-132 0 -132 137q0 67 33 102t99 35q67 0 100 -35t33 -102q0 -137 -133 -137zM182 424q43 0 60 23.5t17 69.5q0 45 -17 68.5t-60 23.5q-42 0 -59.5 -23.5t-17.5 -68.5q0 -46 17 -69.5t60 -23.5z" />
    <glyph glyph-name="guillemotright" unicode="&#xbb;" horiz-adv-x="602" 
d="M298 80l-33 48l213 158l-213 159l33 48l254 -187v-39zM83 80l-33 48l213 158l-213 159l33 48l254 -187v-39z" />
    <glyph glyph-name="onequarter" unicode="&#xbc;" horiz-adv-x="632" 
d="M124 370v228l-74 -16v46l132 26v-284h-58zM100 0l342 644h77l-342 -644h-77zM494 0v58h-150v43l143 183h64v-183h31v-43h-31v-58h-57zM400 102h105v136z" />
    <glyph glyph-name="onehalf" unicode="&#xbd;" horiz-adv-x="630" 
d="M124 370v228l-74 -16v46l132 26v-284h-58zM100 0l342 644h77l-342 -644h-77zM380 0v32q14 24 34 43.5t45 39.5q35 29 47.5 46.5t12.5 37.5q0 21 -13 29.5t-45 8.5q-17 0 -36 -4t-36 -10v47q14 5 38 9.5t50 4.5q49 0 75 -25t26 -60q0 -30 -13.5 -48.5t-43.5 -46.5
q-18 -17 -32.5 -28t-28.5 -29h120v-47h-200z" />
    <glyph glyph-name="threequarters" unicode="&#xbe;" horiz-adv-x="641" 
d="M133 362q-22 0 -46 3.5t-37 8.5v43q33 -13 71 -13q39 0 55 10.5t16 33.5q0 42 -65 42h-37l3 39h31q62 0 62 44q0 38 -64 38q-17 0 -34.5 -3.5t-32.5 -8.5v43q13 5 35.5 8.5t44.5 3.5q62 0 87 -21.5t25 -56.5q0 -22 -10.5 -40.5t-34.5 -26.5q28 -6 39.5 -23t11.5 -40
q0 -84 -120 -84zM109 0l342 644h77l-342 -644h-77zM503 0v58h-150v43l143 183h64v-183h31v-43h-31v-58h-57zM409 102h105v136z" />
    <glyph glyph-name="questiondown" unicode="&#xbf;" horiz-adv-x="493" 
d="M241 409v65h90v-65h-90zM264 -180q-106 0 -160 47.5t-54 131.5q0 55 27.5 90t72.5 72q29 25 50.5 43.5t33 40t11.5 55.5v19h82v-23q0 -45 -20 -76.5t-49.5 -56.5t-57.5 -49t-48 -50.5t-20 -63.5q0 -58 33 -84t118 -26q44 0 86 10t74 26v-70q-31 -16 -78 -26t-101 -10z
" />
    <glyph glyph-name="Agrave" unicode="&#xc0;" horiz-adv-x="685" 
d="M296 688l-79 168h74l71 -168h-66zM50 0l245 644h96l244 -644h-84l-68 177h-280l-68 -177h-85zM217 242h251l-126 331z" />
    <glyph glyph-name="Aacute" unicode="&#xc1;" horiz-adv-x="685" 
d="M292 688l71 168h74l-79 -168h-66zM50 0l245 644h96l244 -644h-84l-68 177h-280l-68 -177h-85zM217 242h251l-126 331z" />
    <glyph glyph-name="Acircumflex" unicode="&#xc2;" horiz-adv-x="685" 
d="M194 688l115 148h66l115 -148h-71l-77 102l-77 -102h-71zM50 0l245 644h96l244 -644h-84l-68 177h-280l-68 -177h-85zM217 242h251l-126 331z" />
    <glyph glyph-name="Atilde" unicode="&#xc3;" horiz-adv-x="685" 
d="M417 703q-26 0 -51 9.5t-48 19t-45 9.5q-24 0 -45 -7.5t-38 -27.5v63q12 14 36 22t47 8q28 0 51.5 -9.5t46 -19t46.5 -9.5q51 0 77 36v-64q-10 -13 -30.5 -21.5t-46.5 -8.5zM50 0l245 644h96l244 -644h-84l-68 177h-280l-68 -177h-85zM217 242h251l-126 331z" />
    <glyph glyph-name="Adieresis" unicode="&#xc4;" horiz-adv-x="685" 
d="M215 710v75h78v-75h-78zM391 710v75h78v-75h-78zM50 0l245 644h96l244 -644h-84l-68 177h-280l-68 -177h-85zM217 242h251l-126 331z" />
    <glyph glyph-name="Aring" unicode="&#xc5;" horiz-adv-x="685" 
d="M50 0l237 622q-26 14 -40.5 38.5t-14.5 55.5q0 45 30.5 76.5t78.5 31.5q50 0 80.5 -31.5t30.5 -76.5q0 -30 -14 -54.5t-39 -38.5l236 -623h-84l-68 177h-280l-68 -177h-85zM341 655q28 0 45 18t17 43q0 26 -17 43.5t-45 17.5q-26 0 -43.5 -17.5t-17.5 -43.5
q0 -25 17.5 -43t43.5 -18zM217 242h251l-126 331z" />
    <glyph glyph-name="AE" unicode="&#xc6;" horiz-adv-x="840" 
d="M50 0l245 644h495v-65h-299v-225h263v-64h-263v-226h299v-64h-381v178h-203l-68 -178h-88zM231 242h178v337h-51z" />
    <glyph glyph-name="Ccedilla" unicode="&#xc7;" horiz-adv-x="595" 
d="M326 -240q-16 0 -37.5 2.5t-32.5 5.5v50q29 -8 63 -8q47 0 68.5 11t21.5 42q0 29 -21 37.5t-64 8.5h-37l26 83q-132 13 -197.5 98t-65.5 218q0 105 32 183t100 120.5t176 42.5q56 0 101.5 -8t85.5 -22v-72q-40 15 -85 23.5t-95 8.5q-87 0 -138 -33t-73 -95t-22 -148
q0 -119 56.5 -183.5t178.5 -64.5q45 0 91.5 7t86.5 22v-73q-37 -11 -80 -18t-94 -8l-13 -38q55 0 83 -23.5t28 -66.5q0 -49 -34.5 -75.5t-108.5 -26.5z" />
    <glyph glyph-name="Egrave" unicode="&#xc8;" horiz-adv-x="555" 
d="M257 688l-79 168h74l71 -168h-66zM70 0v644h435v-65h-353v-225h317v-64h-317v-226h353v-64h-435z" />
    <glyph glyph-name="Eacute" unicode="&#xc9;" horiz-adv-x="555" 
d="M239 688l71 168h74l-79 -168h-66zM70 0v644h435v-65h-353v-225h317v-64h-317v-226h353v-64h-435z" />
    <glyph glyph-name="Ecircumflex" unicode="&#xca;" horiz-adv-x="555" 
d="M126 688l115 148h66l115 -148h-71l-77 102l-77 -102h-71zM70 0v644h435v-65h-353v-225h317v-64h-317v-226h353v-64h-435z" />
    <glyph glyph-name="Edieresis" unicode="&#xcb;" horiz-adv-x="555" 
d="M153 711v75h78v-75h-78zM329 711v75h78v-75h-78zM70 0v644h435v-65h-353v-225h317v-64h-317v-226h353v-64h-435z" />
    <glyph glyph-name="Igrave" unicode="&#xcc;" horiz-adv-x="222" 
d="M80 688l-79 168h74l71 -168h-66zM70 0v644h82v-644h-82z" />
    <glyph glyph-name="Iacute" unicode="&#xcd;" horiz-adv-x="222" 
d="M70 688l71 168h74l-79 -168h-66zM70 0v644h82v-644h-82z" />
    <glyph glyph-name="Icircumflex" unicode="&#xce;" horiz-adv-x="222" 
d="M-37 688l115 148h66l115 -148h-71l-77 102l-77 -102h-71zM70 0v644h82v-644h-82z" />
    <glyph glyph-name="Idieresis" unicode="&#xcf;" horiz-adv-x="222" 
d="M-16 713v75h78v-75h-78zM160 713v75h78v-75h-78zM70 0v644h82v-644h-82z" />
    <glyph glyph-name="Eth" unicode="&#xd0;" horiz-adv-x="664" 
d="M92 0v284h-72v65h72v295h252q140 0 205 -76t65 -250q0 -165 -63.5 -241.5t-206.5 -76.5h-252zM174 64h155q68 0 113 20.5t67.5 75.5t22.5 158q0 102 -20.5 159t-65 79.5t-117.5 22.5h-155v-230h181v-65h-181v-220z" />
    <glyph glyph-name="Ntilde" unicode="&#xd1;" horiz-adv-x="663" 
d="M404 708q-26 0 -51 9.5t-48 19t-45 9.5q-24 0 -45 -7.5t-38 -27.5v63q12 14 36 22t47 8q28 0 51.5 -9.5t46 -19t46.5 -9.5q51 0 77 36v-64q-10 -13 -30.5 -21.5t-46.5 -8.5zM70 0v644h74l367 -518v518h82v-644h-75l-366 517v-517h-82z" />
    <glyph glyph-name="Ograve" unicode="&#xd2;" horiz-adv-x="694" 
d="M320 688l-79 168h74l71 -168h-66zM347 -10q-151 0 -224 79.5t-73 252.5t73 252.5t224 79.5q152 0 224.5 -79.5t72.5 -252.5t-72.5 -252.5t-224.5 -79.5zM347 60q73 0 120.5 25t71 82.5t23.5 154.5t-23.5 154.5t-71 82.5t-120.5 25t-120.5 -25t-71 -82.5t-23.5 -154.5
t23.5 -154.5t71 -82.5t120.5 -25z" />
    <glyph glyph-name="Oacute" unicode="&#xd3;" horiz-adv-x="694" 
d="M312 688l71 168h74l-79 -168h-66zM347 -10q-151 0 -224 79.5t-73 252.5t73 252.5t224 79.5q152 0 224.5 -79.5t72.5 -252.5t-72.5 -252.5t-224.5 -79.5zM347 60q73 0 120.5 25t71 82.5t23.5 154.5t-23.5 154.5t-71 82.5t-120.5 25t-120.5 -25t-71 -82.5t-23.5 -154.5
t23.5 -154.5t71 -82.5t120.5 -25z" />
    <glyph glyph-name="Ocircumflex" unicode="&#xd4;" horiz-adv-x="694" 
d="M199 688l115 148h66l115 -148h-71l-77 102l-77 -102h-71zM347 -10q-151 0 -224 79.5t-73 252.5t73 252.5t224 79.5q152 0 224.5 -79.5t72.5 -252.5t-72.5 -252.5t-224.5 -79.5zM347 60q73 0 120.5 25t71 82.5t23.5 154.5t-23.5 154.5t-71 82.5t-120.5 25t-120.5 -25
t-71 -82.5t-23.5 -154.5t23.5 -154.5t71 -82.5t120.5 -25z" />
    <glyph glyph-name="Otilde" unicode="&#xd5;" horiz-adv-x="694" 
d="M422 713q-26 0 -51 9.5t-48 19t-45 9.5q-24 0 -45 -7.5t-38 -27.5v63q12 14 36 22t47 8q28 0 51.5 -9.5t46 -19t46.5 -9.5q51 0 77 36v-64q-10 -13 -30.5 -21.5t-46.5 -8.5zM347 -10q-151 0 -224 79.5t-73 252.5t73 252.5t224 79.5q152 0 224.5 -79.5t72.5 -252.5
t-72.5 -252.5t-224.5 -79.5zM347 60q73 0 120.5 25t71 82.5t23.5 154.5t-23.5 154.5t-71 82.5t-120.5 25t-120.5 -25t-71 -82.5t-23.5 -154.5t23.5 -154.5t71 -82.5t120.5 -25z" />
    <glyph glyph-name="Odieresis" unicode="&#xd6;" horiz-adv-x="694" 
d="M220 711v75h78v-75h-78zM396 711v75h78v-75h-78zM347 -10q-151 0 -224 79.5t-73 252.5t73 252.5t224 79.5q152 0 224.5 -79.5t72.5 -252.5t-72.5 -252.5t-224.5 -79.5zM347 60q73 0 120.5 25t71 82.5t23.5 154.5t-23.5 154.5t-71 82.5t-120.5 25t-120.5 -25t-71 -82.5
t-23.5 -154.5t23.5 -154.5t71 -82.5t120.5 -25z" />
    <glyph glyph-name="multiply" unicode="&#xd7;" horiz-adv-x="410" 
d="M319 103l-112 113l-109 -108l-43 43l108 109l-113 111l43 43l111 -113l113 112l43 -43l-112 -113l112 -112z" />
    <glyph glyph-name="Oslash" unicode="&#xd8;" horiz-adv-x="694" 
d="M169 -53l26 70q-145 65 -145 305q0 173 73 252.5t224 79.5q21 0 41 -2t38 -5l17 46h72l-24 -64q77 -31 115 -106.5t38 -200.5q0 -173 -72.5 -252.5t-224.5 -79.5q-24 0 -46 2t-42 6l-18 -51h-72zM221 88l180 492q-13 2 -26.5 3t-27.5 1q-73 0 -120.5 -25t-71 -82.5
t-23.5 -154.5q0 -94 22 -151t67 -83zM347 60q73 0 120.5 25t71 82.5t23.5 154.5q0 98 -24 155.5t-72 82.5l-182 -495q14 -2 30 -3.5t33 -1.5z" />
    <glyph glyph-name="Ugrave" unicode="&#xd9;" horiz-adv-x="671" 
d="M319 688l-79 168h74l71 -168h-66zM336 -10q-132 0 -201.5 63t-69.5 183v408h82v-409q0 -88 49.5 -131.5t139.5 -43.5q89 0 138.5 43.5t49.5 131.5v409h82v-408q0 -120 -69.5 -183t-200.5 -63z" />
    <glyph glyph-name="Uacute" unicode="&#xda;" horiz-adv-x="671" 
d="M295 688l71 168h74l-79 -168h-66zM336 -10q-132 0 -201.5 63t-69.5 183v408h82v-409q0 -88 49.5 -131.5t139.5 -43.5q89 0 138.5 43.5t49.5 131.5v409h82v-408q0 -120 -69.5 -183t-200.5 -63z" />
    <glyph glyph-name="Ucircumflex" unicode="&#xdb;" horiz-adv-x="671" 
d="M187 688l115 148h66l115 -148h-71l-77 102l-77 -102h-71zM336 -10q-132 0 -201.5 63t-69.5 183v408h82v-409q0 -88 49.5 -131.5t139.5 -43.5q89 0 138.5 43.5t49.5 131.5v409h82v-408q0 -120 -69.5 -183t-200.5 -63z" />
    <glyph glyph-name="Udieresis" unicode="&#xdc;" horiz-adv-x="671" 
d="M196 711v75h78v-75h-78zM372 711v75h78v-75h-78zM336 -10q-132 0 -201.5 63t-69.5 183v408h82v-409q0 -88 49.5 -131.5t139.5 -43.5q89 0 138.5 43.5t49.5 131.5v409h82v-408q0 -120 -69.5 -183t-200.5 -63z" />
    <glyph glyph-name="Yacute" unicode="&#xdd;" horiz-adv-x="642" 
d="M276 688l71 168h74l-79 -168h-66zM280 0v240l-230 404h85l186 -334l186 334h85l-230 -404v-240h-82z" />
    <glyph glyph-name="Thorn" unicode="&#xde;" horiz-adv-x="582" 
d="M70 0v644h82v-118h190q108 0 159 -57t51 -149q0 -94 -57.5 -149.5t-156.5 -55.5h-186v-115h-82zM152 179h173q72 0 108.5 38.5t36.5 102.5q0 68 -34.5 104.5t-105.5 36.5h-178v-282z" />
    <glyph glyph-name="germandbls" unicode="&#xdf;" horiz-adv-x="627" 
d="M376 -10q-85 0 -144 22v70q28 -12 61 -17t70 -5q62 0 97 34t35 98q0 61 -31 95t-108 34h-82v62h84q63 0 89.5 35t26.5 87q0 38 -14.5 66t-50 43.5t-99.5 15.5q-163 0 -163 -165v-465h-82v468q0 70 30 122t85 81t130 29q82 0 135.5 -26.5t79.5 -70.5t26 -98q0 -55 -23 -95
t-61 -57q50 -15 80 -57.5t30 -107.5q0 -94 -51.5 -146t-149.5 -52z" />
    <glyph glyph-name="agrave" unicode="&#xe0;" horiz-adv-x="541" 
d="M261 522l-79 168h74l71 -168h-66zM217 -10q-45 0 -83 16t-61 47.5t-23 79.5q0 65 43 106.5t140 41.5h165v29q0 39 -10.5 62t-39.5 33t-85 10q-43 0 -83 -7t-75 -19v68q32 12 75.5 19.5t93.5 7.5q101 0 151.5 -41t50.5 -133v-310h-69l-6 54q-31 -32 -75 -48t-109 -16z
M238 57q52 0 92 18.5t68 50.5v92h-163q-56 0 -80 -21t-24 -64t29 -59.5t78 -16.5z" />
    <glyph glyph-name="aacute" unicode="&#xe1;" horiz-adv-x="541" 
d="M244 522l71 168h74l-79 -168h-66zM217 -10q-45 0 -83 16t-61 47.5t-23 79.5q0 65 43 106.5t140 41.5h165v29q0 39 -10.5 62t-39.5 33t-85 10q-43 0 -83 -7t-75 -19v68q32 12 75.5 19.5t93.5 7.5q101 0 151.5 -41t50.5 -133v-310h-69l-6 54q-31 -32 -75 -48t-109 -16z
M238 57q52 0 92 18.5t68 50.5v92h-163q-56 0 -80 -21t-24 -64t29 -59.5t78 -16.5z" />
    <glyph glyph-name="acircumflex" unicode="&#xe2;" horiz-adv-x="541" 
d="M134 522l115 148h66l115 -148h-71l-77 102l-77 -102h-71zM217 -10q-45 0 -83 16t-61 47.5t-23 79.5q0 65 43 106.5t140 41.5h165v29q0 39 -10.5 62t-39.5 33t-85 10q-43 0 -83 -7t-75 -19v68q32 12 75.5 19.5t93.5 7.5q101 0 151.5 -41t50.5 -133v-310h-69l-6 54
q-31 -32 -75 -48t-109 -16zM238 57q52 0 92 18.5t68 50.5v92h-163q-56 0 -80 -21t-24 -64t29 -59.5t78 -16.5z" />
    <glyph glyph-name="atilde" unicode="&#xe3;" horiz-adv-x="541" 
d="M355 542q-26 0 -51 9.5t-48 19t-45 9.5q-24 0 -45 -7.5t-38 -27.5v63q12 14 36 22t47 8q28 0 51.5 -9.5t46 -19t46.5 -9.5q51 0 77 36v-64q-10 -13 -30.5 -21.5t-46.5 -8.5zM217 -10q-45 0 -83 16t-61 47.5t-23 79.5q0 65 43 106.5t140 41.5h165v29q0 39 -10.5 62
t-39.5 33t-85 10q-43 0 -83 -7t-75 -19v68q32 12 75.5 19.5t93.5 7.5q101 0 151.5 -41t50.5 -133v-310h-69l-6 54q-31 -32 -75 -48t-109 -16zM238 57q52 0 92 18.5t68 50.5v92h-163q-56 0 -80 -21t-24 -64t29 -59.5t78 -16.5z" />
    <glyph glyph-name="adieresis" unicode="&#xe4;" horiz-adv-x="541" 
d="M160 545v75h78v-75h-78zM336 545v75h78v-75h-78zM217 -10q-45 0 -83 16t-61 47.5t-23 79.5q0 65 43 106.5t140 41.5h165v29q0 39 -10.5 62t-39.5 33t-85 10q-43 0 -83 -7t-75 -19v68q32 12 75.5 19.5t93.5 7.5q101 0 151.5 -41t50.5 -133v-310h-69l-6 54q-31 -32 -75 -48
t-109 -16zM238 57q52 0 92 18.5t68 50.5v92h-163q-56 0 -80 -21t-24 -64t29 -59.5t78 -16.5z" />
    <glyph glyph-name="aring" unicode="&#xe5;" horiz-adv-x="541" 
d="M283 522q-48 0 -78.5 31t-30.5 76t30.5 76.5t78.5 31.5q50 0 80.5 -31.5t30.5 -76.5t-30.5 -76t-80.5 -31zM283 568q28 0 45 18t17 43q0 26 -17 43.5t-45 17.5q-26 0 -43.5 -17.5t-17.5 -43.5q0 -25 17.5 -43t43.5 -18zM217 -10q-45 0 -83 16t-61 47.5t-23 79.5
q0 65 43 106.5t140 41.5h165v29q0 39 -10.5 62t-39.5 33t-85 10q-43 0 -83 -7t-75 -19v68q32 12 75.5 19.5t93.5 7.5q101 0 151.5 -41t50.5 -133v-310h-69l-6 54q-31 -32 -75 -48t-109 -16zM238 57q52 0 92 18.5t68 50.5v92h-163q-56 0 -80 -21t-24 -64t29 -59.5t78 -16.5z
" />
    <glyph glyph-name="ae" unicode="&#xe6;" horiz-adv-x="881" 
d="M217 -10q-45 0 -83 16t-61 47.5t-23 79.5q0 65 43 106.5t140 41.5h165v29q0 39 -10.5 62t-39.5 33t-85 10q-43 0 -83 -7t-75 -19v68q32 12 75.5 19.5t93.5 7.5q128 0 175 -73q28 33 71.5 53t104.5 20q70 0 115.5 -25.5t68 -70t22.5 -100.5v-89h-351q4 -54 23.5 -85
t59 -44.5t104.5 -13.5q73 0 134 25v-64q-31 -13 -69.5 -20t-80.5 -7q-76 0 -126.5 22t-81.5 68q-19 -22 -47 -42.5t-71.5 -34t-107.5 -13.5zM480 258h278v39q0 58 -30.5 89.5t-100.5 31.5q-85 0 -116 -40t-31 -120zM238 57q58 0 95 18.5t65 50.5v92h-163q-56 0 -80 -21
t-24 -64t29 -59.5t78 -16.5z" />
    <glyph glyph-name="ccedilla" unicode="&#xe7;" horiz-adv-x="490" 
d="M267 -240q-16 0 -37.5 2.5t-32.5 5.5v50q29 -8 63 -8q47 0 68.5 11t21.5 42q0 29 -21 37.5t-64 8.5h-37l26 83q-103 10 -153.5 73t-50.5 172q0 125 68 186t183 61q47 0 78 -6.5t60 -20.5v-65q-54 26 -123 26q-88 0 -136 -41.5t-48 -139.5q0 -94 42 -137.5t139 -43.5
q69 0 127 26v-66q-28 -11 -59.5 -17.5t-68.5 -8.5l-13 -38q55 0 83 -23.5t28 -66.5q0 -49 -34.5 -75.5t-108.5 -26.5z" />
    <glyph glyph-name="egrave" unicode="&#xe8;" horiz-adv-x="533" 
d="M234 522l-79 168h74l71 -168h-66zM303 -10q-127 0 -190 61t-63 188q0 114 54.5 179.5t172.5 65.5q70 0 115.5 -25.5t68 -70t22.5 -100.5v-89h-351q4 -54 23.5 -85t59 -44.5t104.5 -13.5q73 0 134 25v-64q-31 -13 -69.5 -20t-80.5 -7zM132 258h278v39q0 58 -30.5 89.5
t-100.5 31.5q-85 0 -116 -40t-31 -120z" />
    <glyph glyph-name="eacute" unicode="&#xe9;" horiz-adv-x="533" 
d="M227 522l71 168h74l-79 -168h-66zM303 -10q-127 0 -190 61t-63 188q0 114 54.5 179.5t172.5 65.5q70 0 115.5 -25.5t68 -70t22.5 -100.5v-89h-351q4 -54 23.5 -85t59 -44.5t104.5 -13.5q73 0 134 25v-64q-31 -13 -69.5 -20t-80.5 -7zM132 258h278v39q0 58 -30.5 89.5
t-100.5 31.5q-85 0 -116 -40t-31 -120z" />
    <glyph glyph-name="ecircumflex" unicode="&#xea;" horiz-adv-x="533" 
d="M118 522l115 148h66l115 -148h-71l-77 102l-77 -102h-71zM303 -10q-127 0 -190 61t-63 188q0 114 54.5 179.5t172.5 65.5q70 0 115.5 -25.5t68 -70t22.5 -100.5v-89h-351q4 -54 23.5 -85t59 -44.5t104.5 -13.5q73 0 134 25v-64q-31 -13 -69.5 -20t-80.5 -7zM132 258h278
v39q0 58 -30.5 89.5t-100.5 31.5q-85 0 -116 -40t-31 -120z" />
    <glyph glyph-name="edieresis" unicode="&#xeb;" horiz-adv-x="533" 
d="M137 545v75h78v-75h-78zM313 545v75h78v-75h-78zM303 -10q-127 0 -190 61t-63 188q0 114 54.5 179.5t172.5 65.5q70 0 115.5 -25.5t68 -70t22.5 -100.5v-89h-351q4 -54 23.5 -85t59 -44.5t104.5 -13.5q73 0 134 25v-64q-31 -13 -69.5 -20t-80.5 -7zM132 258h278v39
q0 58 -30.5 89.5t-100.5 31.5q-85 0 -116 -40t-31 -120z" />
    <glyph glyph-name="igrave" unicode="&#xec;" horiz-adv-x="295" 
d="M155 522l-79 168h74l71 -168h-66zM143 0v409h-73l8 65h147v-474h-82z" />
    <glyph glyph-name="iacute" unicode="&#xed;" horiz-adv-x="295" 
d="M140 522l71 168h74l-79 -168h-66zM143 0v409h-73l8 65h147v-474h-82z" />
    <glyph glyph-name="icircumflex" unicode="&#xee;" horiz-adv-x="295" 
d="M18 522l115 148h66l115 -148h-71l-77 102l-77 -102h-71zM143 0v409h-73l8 65h147v-474h-82z" />
    <glyph glyph-name="idieresis" unicode="&#xef;" horiz-adv-x="295" 
d="M27 545v75h78v-75h-78zM203 545v75h78v-75h-78zM143 0v409h-73l8 65h147v-474h-82z" />
    <glyph glyph-name="eth" unicode="&#xf0;" horiz-adv-x="573" 
d="M284 -10q-118 0 -176 56t-58 150q0 101 57.5 154.5t163.5 53.5q39 0 85 -13.5t85 -42.5v46q0 41 -5.5 73.5t-18.5 57.5l-134 -58v52l103 45q-38 29 -106 29q-43 0 -78 -6t-64 -17v62q30 10 68.5 16t83.5 6q108 0 165 -60l93 41v-53l-64 -28q18 -31 26.5 -72.5t8.5 -91.5
v-155q0 -128 -59.5 -186.5t-175.5 -58.5zM284 52q79 0 118 38t39 119v80q-33 24 -74 39.5t-82 15.5q-88 0 -124.5 -40t-36.5 -108t40 -106t120 -38z" />
    <glyph glyph-name="ntilde" unicode="&#xf1;" horiz-adv-x="570" 
d="M360 542q-26 0 -51 9.5t-48 19t-45 9.5q-24 0 -45 -7.5t-38 -27.5v63q12 14 36 22t47 8q28 0 51.5 -9.5t46 -19t46.5 -9.5q51 0 77 36v-64q-10 -13 -30.5 -21.5t-46.5 -8.5zM70 0v474h74l5 -54q34 28 79.5 46t104.5 18q90 0 131 -42t41 -132v-310h-82v307q0 62 -25 86.5
t-96 24.5q-44 0 -83 -16t-67 -44v-358h-82z" />
    <glyph glyph-name="ograve" unicode="&#xf2;" horiz-adv-x="574" 
d="M260 522l-79 168h74l71 -168h-66zM287 -10q-124 0 -180.5 63.5t-56.5 183.5q0 119 57 183t180 64t180 -64t57 -183q0 -120 -56 -183.5t-181 -63.5zM287 60q85 0 120 42.5t35 134.5t-35.5 134.5t-119.5 42.5t-119.5 -42.5t-35.5 -134.5t35 -134.5t120 -42.5z" />
    <glyph glyph-name="oacute" unicode="&#xf3;" horiz-adv-x="574" 
d="M253 522l71 168h74l-79 -168h-66zM287 -10q-124 0 -180.5 63.5t-56.5 183.5q0 119 57 183t180 64t180 -64t57 -183q0 -120 -56 -183.5t-181 -63.5zM287 60q85 0 120 42.5t35 134.5t-35.5 134.5t-119.5 42.5t-119.5 -42.5t-35.5 -134.5t35 -134.5t120 -42.5z" />
    <glyph glyph-name="ocircumflex" unicode="&#xf4;" horiz-adv-x="574" 
d="M139 522l115 148h66l115 -148h-71l-77 102l-77 -102h-71zM287 -10q-124 0 -180.5 63.5t-56.5 183.5q0 119 57 183t180 64t180 -64t57 -183q0 -120 -56 -183.5t-181 -63.5zM287 60q85 0 120 42.5t35 134.5t-35.5 134.5t-119.5 42.5t-119.5 -42.5t-35.5 -134.5t35 -134.5
t120 -42.5z" />
    <glyph glyph-name="otilde" unicode="&#xf5;" horiz-adv-x="574" 
d="M362 547q-26 0 -51 9.5t-48 19t-45 9.5q-24 0 -45 -7.5t-38 -27.5v63q12 14 36 22t47 8q28 0 51.5 -9.5t46 -19t46.5 -9.5q51 0 77 36v-64q-10 -13 -30.5 -21.5t-46.5 -8.5zM287 -10q-124 0 -180.5 63.5t-56.5 183.5q0 119 57 183t180 64t180 -64t57 -183
q0 -120 -56 -183.5t-181 -63.5zM287 60q85 0 120 42.5t35 134.5t-35.5 134.5t-119.5 42.5t-119.5 -42.5t-35.5 -134.5t35 -134.5t120 -42.5z" />
    <glyph glyph-name="odieresis" unicode="&#xf6;" horiz-adv-x="574" 
d="M160 545v75h78v-75h-78zM336 545v75h78v-75h-78zM287 -10q-124 0 -180.5 63.5t-56.5 183.5q0 119 57 183t180 64t180 -64t57 -183q0 -120 -56 -183.5t-181 -63.5zM287 60q85 0 120 42.5t35 134.5t-35.5 134.5t-119.5 42.5t-119.5 -42.5t-35.5 -134.5t35 -134.5t120 -42.5
z" />
    <glyph glyph-name="divide" unicode="&#xf7;" horiz-adv-x="476" 
d="M202 398v67h71v-67h-71zM50 236v65h376v-65h-376zM202 78v67h71v-67h-71z" />
    <glyph glyph-name="oslash" unicode="&#xf8;" horiz-adv-x="574" 
d="M146 -54l23 64q-61 26 -90 83t-29 144q0 119 57 183t180 64q14 0 27.5 -1t26.5 -3l18 48h72l-24 -66q60 -26 88.5 -83t28.5 -142q0 -120 -56 -183.5t-181 -63.5q-28 0 -52 3l-17 -47h-72zM195 79l122 333q-7 1 -14.5 1.5t-15.5 0.5q-84 0 -119.5 -42.5t-35.5 -134.5
q0 -61 14.5 -99.5t48.5 -58.5zM287 60q85 0 120 42.5t35 134.5q0 59 -14.5 97.5t-46.5 57.5l-121 -331q7 -1 13.5 -1h13.5z" />
    <glyph glyph-name="ugrave" unicode="&#xf9;" horiz-adv-x="570" 
d="M258 522l-79 168h74l71 -168h-66zM237 -10q-85 0 -128.5 47t-43.5 137v300h82v-303q0 -59 29.5 -87t91.5 -28q44 0 83 16t67 44v358h82v-474h-74l-5 54q-34 -28 -81 -46t-103 -18z" />
    <glyph glyph-name="uacute" unicode="&#xfa;" horiz-adv-x="570" 
d="M235 522l71 168h74l-79 -168h-66zM237 -10q-85 0 -128.5 47t-43.5 137v300h82v-303q0 -59 29.5 -87t91.5 -28q44 0 83 16t67 44v358h82v-474h-74l-5 54q-34 -28 -81 -46t-103 -18z" />
    <glyph glyph-name="ucircumflex" unicode="&#xfb;" horiz-adv-x="570" 
d="M133 522l115 148h66l115 -148h-71l-77 102l-77 -102h-71zM237 -10q-85 0 -128.5 47t-43.5 137v300h82v-303q0 -59 29.5 -87t91.5 -28q44 0 83 16t67 44v358h82v-474h-74l-5 54q-34 -28 -81 -46t-103 -18z" />
    <glyph glyph-name="udieresis" unicode="&#xfc;" horiz-adv-x="570" 
d="M152 542v75h78v-75h-78zM328 542v75h78v-75h-78zM237 -10q-85 0 -128.5 47t-43.5 137v300h82v-303q0 -59 29.5 -87t91.5 -28q44 0 83 16t67 44v358h82v-474h-74l-5 54q-34 -28 -81 -46t-103 -18z" />
    <glyph glyph-name="yacute" unicode="&#xfd;" horiz-adv-x="584" 
d="M258 522l71 168h74l-79 -168h-66zM159 -176q-47 0 -82 13v66q17 -6 31.5 -8t29.5 -2q34 0 53.5 12t34.5 36.5t33 63.5l-209 469h85l165 -382l170 382h84l-199 -453q-25 -57 -51 -101.5t-60 -70t-85 -25.5z" />
    <glyph glyph-name="thorn" unicode="&#xfe;" horiz-adv-x="575" 
d="M70 -216v916h83v-261q65 45 158 45q100 0 157 -59.5t57 -188.5q0 -128 -57 -187t-158 -59q-93 0 -158 45v-251h-82zM288 56q80 0 117.5 41.5t37.5 138.5q0 93 -35 137.5t-118 44.5q-41 0 -76 -14t-62 -43v-258q25 -22 59 -34.5t77 -12.5z" />
    <glyph glyph-name="ydieresis" unicode="&#xff;" horiz-adv-x="584" 
d="M178 552v75h78v-75h-78zM354 552v75h78v-75h-78zM159 -176q-47 0 -82 13v66q17 -6 31.5 -8t29.5 -2q34 0 53.5 12t34.5 36.5t33 63.5l-209 469h85l165 -382l170 382h84l-199 -453q-25 -57 -51 -101.5t-60 -70t-85 -25.5z" />
    <glyph glyph-name="Amacron" unicode="&#x100;" horiz-adv-x="685" 
d="M198 712v59h288v-59h-288zM50 0l245 644h96l244 -644h-84l-68 177h-280l-68 -177h-85zM217 242h251l-126 331z" />
    <glyph glyph-name="amacron" unicode="&#x101;" horiz-adv-x="541" 
d="M133 546v59h288v-59h-288zM217 -10q-45 0 -83 16t-61 47.5t-23 79.5q0 65 43 106.5t140 41.5h165v29q0 39 -10.5 62t-39.5 33t-85 10q-43 0 -83 -7t-75 -19v68q32 12 75.5 19.5t93.5 7.5q101 0 151.5 -41t50.5 -133v-310h-69l-6 54q-31 -32 -75 -48t-109 -16zM238 57
q52 0 92 18.5t68 50.5v92h-163q-56 0 -80 -21t-24 -64t29 -59.5t78 -16.5z" />
    <glyph glyph-name="Abreve" unicode="&#x102;" horiz-adv-x="685" 
d="M341 688q-62 0 -94 35t-32 91h58q0 -38 18.5 -56t49.5 -18q33 0 51.5 18t18.5 56h58q0 -56 -32.5 -91t-95.5 -35zM50 0l245 644h96l244 -644h-84l-68 177h-280l-68 -177h-85zM217 242h251l-126 331z" />
    <glyph glyph-name="abreve" unicode="&#x103;" horiz-adv-x="541" 
d="M283 522q-62 0 -94 35t-32 91h58q0 -38 18.5 -56t49.5 -18q33 0 51.5 18t18.5 56h58q0 -56 -32.5 -91t-95.5 -35zM217 -10q-45 0 -83 16t-61 47.5t-23 79.5q0 65 43 106.5t140 41.5h165v29q0 39 -10.5 62t-39.5 33t-85 10q-43 0 -83 -7t-75 -19v68q32 12 75.5 19.5
t93.5 7.5q101 0 151.5 -41t50.5 -133v-310h-69l-6 54q-31 -32 -75 -48t-109 -16zM238 57q52 0 92 18.5t68 50.5v92h-163q-56 0 -80 -21t-24 -64t29 -59.5t78 -16.5z" />
    <glyph glyph-name="Aogonek" unicode="&#x104;" horiz-adv-x="685" 
d="M50 0l245 644h96l244 -644h-20q-72 -54 -72 -120q0 -25 12.5 -34t37.5 -9q13 0 27 3t23 8v-56q-12 -6 -31 -9t-37 -3q-40 0 -69.5 20.5t-29.5 67.5q0 39 21 74.5t54 57.5l-68 177h-280l-68 -177h-85zM217 242h251l-126 331z" />
    <glyph glyph-name="aogonek" unicode="&#x105;" horiz-adv-x="541" 
d="M432 -220q-40 0 -69.5 20.5t-29.5 67.5q0 39 21 74.5t53 57.5l-6 54q-31 -32 -75 -48t-109 -16q-45 0 -83 16t-61 47.5t-23 79.5q0 65 43 106.5t140 41.5h165v29q0 39 -10.5 62t-39.5 33t-85 10q-43 0 -83 -7t-75 -19v68q32 12 75.5 19.5t93.5 7.5q101 0 151.5 -41
t50.5 -133v-310q-40 -25 -58 -56.5t-18 -63.5q0 -25 12.5 -34t37.5 -9q13 0 27 3t23 8v-56q-12 -6 -31 -9t-37 -3zM238 57q52 0 92 18.5t68 50.5v92h-163q-56 0 -80 -21t-24 -64t29 -59.5t78 -16.5z" />
    <glyph glyph-name="Cacute" unicode="&#x106;" horiz-adv-x="595" 
d="M303 688l71 168h74l-79 -168h-66zM359 -10q-104 0 -172.5 39.5t-102.5 111t-34 167.5q0 105 32 183t100 120.5t176 42.5q56 0 101.5 -8t85.5 -22v-72q-40 15 -85 23.5t-95 8.5q-87 0 -138 -33t-73 -95t-22 -148q0 -119 56.5 -183.5t178.5 -64.5q45 0 91.5 7t86.5 22v-73
q-39 -12 -84.5 -19t-101.5 -7z" />
    <glyph glyph-name="cacute" unicode="&#x107;" horiz-adv-x="490" 
d="M230 522l71 168h74l-79 -168h-66zM294 -10q-124 0 -184 64.5t-60 182.5q0 125 68 186t183 61q47 0 78 -6.5t60 -20.5v-65q-54 26 -123 26q-88 0 -136 -41.5t-48 -139.5q0 -94 42 -137.5t139 -43.5q69 0 127 26v-66q-31 -13 -66.5 -19.5t-79.5 -6.5z" />
    <glyph glyph-name="Ccircumflex" unicode="&#x108;" horiz-adv-x="595" 
d="M183 688l115 148h66l115 -148h-71l-77 102l-77 -102h-71zM359 -10q-104 0 -172.5 39.5t-102.5 111t-34 167.5q0 105 32 183t100 120.5t176 42.5q56 0 101.5 -8t85.5 -22v-72q-40 15 -85 23.5t-95 8.5q-87 0 -138 -33t-73 -95t-22 -148q0 -119 56.5 -183.5t178.5 -64.5
q45 0 91.5 7t86.5 22v-73q-39 -12 -84.5 -19t-101.5 -7z" />
    <glyph glyph-name="ccircumflex" unicode="&#x109;" horiz-adv-x="490" 
d="M122 522l115 148h66l115 -148h-71l-77 102l-77 -102h-71zM294 -10q-124 0 -184 64.5t-60 182.5q0 125 68 186t183 61q47 0 78 -6.5t60 -20.5v-65q-54 26 -123 26q-88 0 -136 -41.5t-48 -139.5q0 -94 42 -137.5t139 -43.5q69 0 127 26v-66q-31 -13 -66.5 -19.5t-79.5 -6.5
z" />
    <glyph glyph-name="Cdotaccent" unicode="&#x10a;" horiz-adv-x="595" 
d="M312 710v77h80v-77h-80zM359 -10q-104 0 -172.5 39.5t-102.5 111t-34 167.5q0 105 32 183t100 120.5t176 42.5q56 0 101.5 -8t85.5 -22v-72q-40 15 -85 23.5t-95 8.5q-87 0 -138 -33t-73 -95t-22 -148q0 -119 56.5 -183.5t178.5 -64.5q45 0 91.5 7t86.5 22v-73
q-39 -12 -84.5 -19t-101.5 -7z" />
    <glyph glyph-name="cdotaccent" unicode="&#x10b;" horiz-adv-x="490" 
d="M242 544v77h80v-77h-80zM294 -10q-124 0 -184 64.5t-60 182.5q0 125 68 186t183 61q47 0 78 -6.5t60 -20.5v-65q-54 26 -123 26q-88 0 -136 -41.5t-48 -139.5q0 -94 42 -137.5t139 -43.5q69 0 127 26v-66q-31 -13 -66.5 -19.5t-79.5 -6.5z" />
    <glyph glyph-name="Ccaron" unicode="&#x10c;" horiz-adv-x="595" 
d="M324 688l-115 148h71l77 -102l77 102h71l-115 -148h-66zM359 -10q-104 0 -172.5 39.5t-102.5 111t-34 167.5q0 105 32 183t100 120.5t176 42.5q56 0 101.5 -8t85.5 -22v-72q-40 15 -85 23.5t-95 8.5q-87 0 -138 -33t-73 -95t-22 -148q0 -119 56.5 -183.5t178.5 -64.5
q45 0 91.5 7t86.5 22v-73q-39 -12 -84.5 -19t-101.5 -7z" />
    <glyph glyph-name="ccaron" unicode="&#x10d;" horiz-adv-x="490" 
d="M237 522l-115 148h71l77 -102l77 102h71l-115 -148h-66zM294 -10q-124 0 -184 64.5t-60 182.5q0 125 68 186t183 61q47 0 78 -6.5t60 -20.5v-65q-54 26 -123 26q-88 0 -136 -41.5t-48 -139.5q0 -94 42 -137.5t139 -43.5q69 0 127 26v-66q-31 -13 -66.5 -19.5t-79.5 -6.5z
" />
    <glyph glyph-name="Dcaron" unicode="&#x10e;" horiz-adv-x="642" 
d="M265 688l-115 148h71l77 -102l77 102h71l-115 -148h-66zM70 0v644h252q140 0 205 -76t65 -250q0 -165 -63.5 -241.5t-206.5 -76.5h-252zM152 64h155q68 0 113 20.5t67.5 75.5t22.5 158q0 102 -20.5 159t-65 79.5t-117.5 22.5h-155v-515z" />
    <glyph glyph-name="dcaron" unicode="&#x10f;" horiz-adv-x="662" 
d="M264 -10q-100 0 -157 55.5t-57 184.5q0 128 59.5 191t159.5 63q89 0 154 -45v235h82v-674h-70l-6 50q-33 -31 -72.5 -45.5t-92.5 -14.5zM563 497l28 177h74l-42 -177h-60zM285 56q41 0 76 14t62 43v258q-25 22 -59 34.5t-77 12.5q-79 0 -117 -45.5t-38 -142.5
q0 -93 35 -133.5t118 -40.5z" />
    <glyph glyph-name="Dcroat" unicode="&#x110;" horiz-adv-x="664" 
d="M92 0v284h-72v65h72v295h252q140 0 205 -76t65 -250q0 -165 -63.5 -241.5t-206.5 -76.5h-252zM174 64h155q68 0 113 20.5t67.5 75.5t22.5 158q0 102 -20.5 159t-65 79.5t-117.5 22.5h-155v-230h181v-65h-181v-220z" />
    <glyph glyph-name="dcroat" unicode="&#x111;" horiz-adv-x="573" 
d="M264 -10q-100 0 -157 55.5t-57 184.5q0 128 59.5 191t159.5 63q89 0 154 -45v105h-185v65h185v65h82v-65h48v-65h-48v-544h-70l-6 50q-33 -31 -72.5 -45.5t-92.5 -14.5zM285 56q41 0 76 14t62 43v258q-25 22 -59 34.5t-77 12.5q-79 0 -117 -45.5t-38 -142.5
q0 -93 35 -133.5t118 -40.5z" />
    <glyph glyph-name="Emacron" unicode="&#x112;" horiz-adv-x="555" 
d="M130 720v59h288v-59h-288zM70 0v644h435v-65h-353v-225h317v-64h-317v-226h353v-64h-435z" />
    <glyph glyph-name="emacron" unicode="&#x113;" horiz-adv-x="533" 
d="M136 554v59h288v-59h-288zM303 -10q-127 0 -190 61t-63 188q0 114 54.5 179.5t172.5 65.5q70 0 115.5 -25.5t68 -70t22.5 -100.5v-89h-351q4 -54 23.5 -85t59 -44.5t104.5 -13.5q73 0 134 25v-64q-31 -13 -69.5 -20t-80.5 -7zM132 258h278v39q0 58 -30.5 89.5
t-100.5 31.5q-85 0 -116 -40t-31 -120z" />
    <glyph glyph-name="Ebreve" unicode="&#x114;" horiz-adv-x="555" 
d="M285 688q-62 0 -94 35t-32 91h58q0 -38 18.5 -56t49.5 -18q33 0 51.5 18t18.5 56h58q0 -56 -32.5 -91t-95.5 -35zM70 0v644h435v-65h-353v-225h317v-64h-317v-226h353v-64h-435z" />
    <glyph glyph-name="ebreve" unicode="&#x115;" horiz-adv-x="533" 
d="M269 522q-62 0 -94 35t-32 91h58q0 -38 18.5 -56t49.5 -18q33 0 51.5 18t18.5 56h58q0 -56 -32.5 -91t-95.5 -35zM303 -10q-127 0 -190 61t-63 188q0 114 54.5 179.5t172.5 65.5q70 0 115.5 -25.5t68 -70t22.5 -100.5v-89h-351q4 -54 23.5 -85t59 -44.5t104.5 -13.5
q73 0 134 25v-64q-31 -13 -69.5 -20t-80.5 -7zM132 258h278v39q0 58 -30.5 89.5t-100.5 31.5q-85 0 -116 -40t-31 -120z" />
    <glyph glyph-name="Edotaccent" unicode="&#x116;" horiz-adv-x="555" 
d="M239 710v77h80v-77h-80zM70 0v644h435v-65h-353v-225h317v-64h-317v-226h353v-64h-435z" />
    <glyph glyph-name="edotaccent" unicode="&#x117;" horiz-adv-x="533" 
d="M228 544v77h80v-77h-80zM303 -10q-127 0 -190 61t-63 188q0 114 54.5 179.5t172.5 65.5q70 0 115.5 -25.5t68 -70t22.5 -100.5v-89h-351q4 -54 23.5 -85t59 -44.5t104.5 -13.5q73 0 134 25v-64q-31 -13 -69.5 -20t-80.5 -7zM132 258h278v39q0 58 -30.5 89.5t-100.5 31.5
q-85 0 -116 -40t-31 -120z" />
    <glyph glyph-name="Eogonek" unicode="&#x118;" horiz-adv-x="555" 
d="M70 0v644h435v-65h-353v-225h317v-64h-317v-226h353v-64h-37q-72 -54 -72 -120q0 -25 12.5 -34t37.5 -9q13 0 27 3t23 8v-56q-12 -6 -31 -9t-37 -3q-40 0 -69.5 20.5t-29.5 67.5q0 39 21 74.5t54 57.5h-334z" />
    <glyph glyph-name="eogonek" unicode="&#x119;" horiz-adv-x="533" 
d="M303 -10q-127 0 -190 61t-63 188q0 114 54.5 179.5t172.5 65.5q70 0 115.5 -25.5t68 -70t22.5 -100.5v-89h-351q4 -54 23.5 -85t59 -44.5t104.5 -13.5q73 0 134 25v-64q-25 -11 -57 -18q-71 -53 -71 -119q0 -25 12.5 -34t37.5 -9q13 0 27 3t23 8v-56q-12 -6 -31 -9
t-37 -3q-40 0 -69.5 20.5t-29.5 67.5q0 35 17 67t45 55h-17zM132 258h278v39q0 58 -30.5 89.5t-100.5 31.5q-85 0 -116 -40t-31 -120z" />
    <glyph glyph-name="Ecaron" unicode="&#x11a;" horiz-adv-x="555" 
d="M254 688l-115 148h71l77 -102l77 102h71l-115 -148h-66zM70 0v644h435v-65h-353v-225h317v-64h-317v-226h353v-64h-435z" />
    <glyph glyph-name="ecaron" unicode="&#x11b;" horiz-adv-x="533" 
d="M242 522l-115 148h71l77 -102l77 102h71l-115 -148h-66zM303 -10q-127 0 -190 61t-63 188q0 114 54.5 179.5t172.5 65.5q70 0 115.5 -25.5t68 -70t22.5 -100.5v-89h-351q4 -54 23.5 -85t59 -44.5t104.5 -13.5q73 0 134 25v-64q-31 -13 -69.5 -20t-80.5 -7zM132 258h278
v39q0 58 -30.5 89.5t-100.5 31.5q-85 0 -116 -40t-31 -120z" />
    <glyph glyph-name="Gcircumflex" unicode="&#x11c;" horiz-adv-x="639" 
d="M208 688l115 148h66l115 -148h-71l-77 102l-77 -102h-71zM359 -10q-104 0 -172.5 39.5t-102.5 111t-34 167.5q0 105 32 183t100 120.5t176 42.5q56 0 101.5 -8t85.5 -22v-72q-40 15 -85 23.5t-95 8.5q-87 0 -138 -33t-73 -95t-22 -148q0 -119 55 -183.5t177 -64.5
q43 0 83 7t71 19v205h-172v56h243v-306q-29 -19 -84.5 -35t-145.5 -16z" />
    <glyph glyph-name="gcircumflex" unicode="&#x11d;" horiz-adv-x="547" 
d="M116 522l115 148h66l115 -148h-71l-77 102l-77 -102h-71zM254 -176q-53 0 -103.5 6t-86.5 19v68q40 -13 90 -20t96 -7q75 0 110 9t35 46q0 26 -18.5 37t-65.5 11h-126q-131 0 -131 88q0 29 18.5 55.5t55.5 37.5q-40 20 -59 55.5t-19 84.5q0 89 51.5 129.5t157.5 40.5
q22 0 45.5 -3.5t36.5 -6.5h171l-3 -56h-86q23 -19 33 -45.5t10 -58.5q0 -79 -46 -122.5t-141 -43.5q-16 0 -28.5 1.5t-29.5 3.5q-31 -1 -58 -17.5t-27 -42.5q0 -17 13.5 -25t49.5 -8h131q71 0 109 -28.5t38 -83.5q0 -70 -58 -97t-165 -27zM259 210q71 0 98 23t27 81
t-28.5 84t-96.5 26q-67 0 -97 -25t-30 -85q0 -55 28.5 -79.5t98.5 -24.5z" />
    <glyph glyph-name="Gbreve" unicode="&#x11e;" horiz-adv-x="639" 
d="M349 688q-62 0 -94 35t-32 91h58q0 -38 18.5 -56t49.5 -18q33 0 51.5 18t18.5 56h58q0 -56 -32.5 -91t-95.5 -35zM359 -10q-104 0 -172.5 39.5t-102.5 111t-34 167.5q0 105 32 183t100 120.5t176 42.5q56 0 101.5 -8t85.5 -22v-72q-40 15 -85 23.5t-95 8.5
q-87 0 -138 -33t-73 -95t-22 -148q0 -119 55 -183.5t177 -64.5q43 0 83 7t71 19v205h-172v56h243v-306q-29 -19 -84.5 -35t-145.5 -16z" />
    <glyph glyph-name="gbreve" unicode="&#x11f;" horiz-adv-x="547" 
d="M265 522q-62 0 -94 35t-32 91h58q0 -38 18.5 -56t49.5 -18q33 0 51.5 18t18.5 56h58q0 -56 -32.5 -91t-95.5 -35zM254 -176q-53 0 -103.5 6t-86.5 19v68q40 -13 90 -20t96 -7q75 0 110 9t35 46q0 26 -18.5 37t-65.5 11h-126q-131 0 -131 88q0 29 18.5 55.5t55.5 37.5
q-40 20 -59 55.5t-19 84.5q0 89 51.5 129.5t157.5 40.5q22 0 45.5 -3.5t36.5 -6.5h171l-3 -56h-86q23 -19 33 -45.5t10 -58.5q0 -79 -46 -122.5t-141 -43.5q-16 0 -28.5 1.5t-29.5 3.5q-31 -1 -58 -17.5t-27 -42.5q0 -17 13.5 -25t49.5 -8h131q71 0 109 -28.5t38 -83.5
q0 -70 -58 -97t-165 -27zM259 210q71 0 98 23t27 81t-28.5 84t-96.5 26q-67 0 -97 -25t-30 -85q0 -55 28.5 -79.5t98.5 -24.5z" />
    <glyph glyph-name="Gdotaccent" unicode="&#x120;" horiz-adv-x="639" 
d="M312 710v77h80v-77h-80zM359 -10q-104 0 -172.5 39.5t-102.5 111t-34 167.5q0 105 32 183t100 120.5t176 42.5q56 0 101.5 -8t85.5 -22v-72q-40 15 -85 23.5t-95 8.5q-87 0 -138 -33t-73 -95t-22 -148q0 -119 55 -183.5t177 -64.5q43 0 83 7t71 19v205h-172v56h243v-306
q-29 -19 -84.5 -35t-145.5 -16z" />
    <glyph glyph-name="gdotaccent" unicode="&#x121;" horiz-adv-x="547" 
d="M220 539v77h80v-77h-80zM254 -176q-53 0 -103.5 6t-86.5 19v68q40 -13 90 -20t96 -7q75 0 110 9t35 46q0 26 -18.5 37t-65.5 11h-126q-131 0 -131 88q0 29 18.5 55.5t55.5 37.5q-40 20 -59 55.5t-19 84.5q0 89 51.5 129.5t157.5 40.5q22 0 45.5 -3.5t36.5 -6.5h171
l-3 -56h-86q23 -19 33 -45.5t10 -58.5q0 -79 -46 -122.5t-141 -43.5q-16 0 -28.5 1.5t-29.5 3.5q-31 -1 -58 -17.5t-27 -42.5q0 -17 13.5 -25t49.5 -8h131q71 0 109 -28.5t38 -83.5q0 -70 -58 -97t-165 -27zM259 210q71 0 98 23t27 81t-28.5 84t-96.5 26q-67 0 -97 -25
t-30 -85q0 -55 28.5 -79.5t98.5 -24.5z" />
    <glyph glyph-name="uni0122" unicode="&#x122;" horiz-adv-x="639" 
d="M359 -10q-104 0 -172.5 39.5t-102.5 111t-34 167.5q0 105 32 183t100 120.5t176 42.5q56 0 101.5 -8t85.5 -22v-72q-40 15 -85 23.5t-95 8.5q-87 0 -138 -33t-73 -95t-22 -148q0 -119 55 -183.5t177 -64.5q43 0 83 7t71 19v205h-172v56h243v-306q-29 -19 -84.5 -35
t-145.5 -16zM306 -224l28 177h74l-42 -177h-60z" />
    <glyph glyph-name="uni0123" unicode="&#x123;" horiz-adv-x="547" 
d="M217 522l42 177h60l-28 -177h-74zM254 -176q-53 0 -103.5 6t-86.5 19v68q40 -13 90 -20t96 -7q75 0 110 9t35 46q0 26 -18.5 37t-65.5 11h-126q-131 0 -131 88q0 29 18.5 55.5t55.5 37.5q-40 20 -59 55.5t-19 84.5q0 89 51.5 129.5t157.5 40.5q22 0 45.5 -3.5t36.5 -6.5
h171l-3 -56h-86q23 -19 33 -45.5t10 -58.5q0 -79 -46 -122.5t-141 -43.5q-16 0 -28.5 1.5t-29.5 3.5q-31 -1 -58 -17.5t-27 -42.5q0 -17 13.5 -25t49.5 -8h131q71 0 109 -28.5t38 -83.5q0 -70 -58 -97t-165 -27zM259 210q71 0 98 23t27 81t-28.5 84t-96.5 26q-67 0 -97 -25
t-30 -85q0 -55 28.5 -79.5t98.5 -24.5z" />
    <glyph glyph-name="Hcircumflex" unicode="&#x124;" horiz-adv-x="644" 
d="M174 688l115 148h66l115 -148h-71l-77 102l-77 -102h-71zM70 0v644h82v-290h340v290h82v-644h-82v290h-340v-290h-82z" />
    <glyph glyph-name="hcircumflex" unicode="&#x125;" horiz-adv-x="570" 
d="M76 701l115 148h66l115 -148h-71l-77 102l-77 -102h-71zM70 0v674h82v-251q33 27 77.5 44t103.5 17q86 0 129 -42t43 -132v-310h-82v307q0 62 -27.5 86.5t-90.5 24.5q-40 0 -82.5 -17.5t-70.5 -45.5v-355h-82z" />
    <glyph glyph-name="Hbar" unicode="&#x126;" horiz-adv-x="644" 
d="M70 0v464h-60v65h60v115h82v-115h340v115h82v-115h60v-65h-60v-464h-82v290h-340v-290h-82zM152 354h340v110h-340v-110z" />
    <glyph glyph-name="hbar" unicode="&#x127;" horiz-adv-x="587" 
d="M87 0v544h-57v65h57v65h82v-65h166v-65h-166v-121q33 27 77.5 44t103.5 17q86 0 129 -42t43 -132v-310h-82v307q0 62 -27.5 86.5t-90.5 24.5q-40 0 -82.5 -17.5t-70.5 -45.5v-355h-82z" />
    <glyph glyph-name="Itilde" unicode="&#x128;" horiz-adv-x="222" 
d="M186 693q-26 0 -51 9.5t-48 19t-45 9.5q-24 0 -45 -7.5t-38 -27.5v63q12 14 36 22t47 8q28 0 51.5 -9.5t46 -19t46.5 -9.5q51 0 77 36v-64q-10 -13 -30.5 -21.5t-46.5 -8.5zM70 0v644h82v-644h-82z" />
    <glyph glyph-name="itilde" unicode="&#x129;" horiz-adv-x="295" 
d="M224 527q-26 0 -51 9.5t-48 19t-45 9.5q-24 0 -45 -7.5t-38 -27.5v63q12 14 36 22t47 8q28 0 51.5 -9.5t46 -19t46.5 -9.5q51 0 77 36v-64q-10 -13 -30.5 -21.5t-46.5 -8.5zM143 0v409h-73l8 65h147v-474h-82z" />
    <glyph glyph-name="Imacron" unicode="&#x12a;" horiz-adv-x="222" 
d="M-33 720v59h288v-59h-288zM70 0v644h82v-644h-82z" />
    <glyph glyph-name="imacron" unicode="&#x12b;" horiz-adv-x="295" 
d="M4 561v59h288v-59h-288zM143 0v409h-73l8 65h147v-474h-82z" />
    <glyph glyph-name="Ibreve" unicode="&#x12c;" horiz-adv-x="222" 
d="M110 695q-62 0 -94 35t-32 91h58q0 -38 18.5 -56t49.5 -18q33 0 51.5 18t18.5 56h58q0 -56 -32.5 -91t-95.5 -35zM70 0v644h82v-644h-82z" />
    <glyph glyph-name="ibreve" unicode="&#x12d;" horiz-adv-x="295" 
d="M158 521q-62 0 -94 35t-32 91h58q0 -38 18.5 -56t49.5 -18q33 0 51.5 18t18.5 56h58q0 -56 -32.5 -91t-95.5 -35zM143 0v409h-73l8 65h147v-474h-82z" />
    <glyph glyph-name="Iogonek" unicode="&#x12e;" horiz-adv-x="222" 
d="M70 0v644h82v-644h-6q-72 -54 -72 -120q0 -25 12.5 -34t37.5 -9q13 0 27 3t23 8v-56q-12 -6 -31 -9t-37 -3q-40 0 -69.5 20.5t-29.5 67.5q0 39 21 74.5t54 57.5h-12z" />
    <glyph glyph-name="iogonek" unicode="&#x12f;" horiz-adv-x="276" 
d="M115 585v75h91v-75h-91zM123 0v409h-73l8 65h147v-474h-16q-72 -54 -72 -120q0 -25 12.5 -34t37.5 -9q13 0 27 3t23 8v-56q-12 -6 -31 -9t-37 -3q-40 0 -69.5 20.5t-29.5 67.5q0 39 21 74.5t54 57.5h-2z" />
    <glyph glyph-name="Idotaccent" unicode="&#x130;" horiz-adv-x="222" 
d="M71 712v77h80v-77h-80zM70 0v644h82v-644h-82z" />
    <glyph glyph-name="dotlessi" unicode="&#x131;" horiz-adv-x="275" 
d="M123 0v409h-73l8 65h147v-474h-82z" />
    <glyph glyph-name="IJ" unicode="&#x132;" horiz-adv-x="628" 
d="M366 -10q-40 0 -74.5 6.5t-60.5 16.5v70q24 -10 58 -17t67 -7q71 0 98 30t27 94v461h82v-467q0 -88 -48.5 -137.5t-148.5 -49.5zM70 0v644h82v-644h-82z" />
    <glyph glyph-name="ij" unicode="&#x133;" horiz-adv-x="486" 
d="M115 585v75h91v-75h-91zM325 585v75h91v-75h-91zM271 -234q-50 0 -89 14v65q17 -5 32.5 -7.5t28.5 -2.5q54 0 72.5 18t18.5 60v496h-73l8 65h147v-568q0 -64 -37 -102t-108 -38zM123 0v409h-73l8 65h147v-474h-82z" />
    <glyph glyph-name="Jcircumflex" unicode="&#x134;" horiz-adv-x="427" 
d="M171 688l115 148h66l115 -148h-71l-77 102l-77 -102h-71zM165 -10q-40 0 -74.5 6.5t-60.5 16.5v70q24 -10 58 -17t67 -7q71 0 98 30t27 94v461h82v-467q0 -88 -48.5 -137.5t-148.5 -49.5z" />
    <glyph glyph-name="jcircumflex" unicode="&#x135;" horiz-adv-x="294" 
d="M24 522l115 148h66l115 -148h-71l-77 102l-77 -102h-71zM79 -234q-50 0 -89 14v65q17 -5 32.5 -7.5t28.5 -2.5q54 0 72.5 18t18.5 60v496h-73l8 65h147v-568q0 -64 -37 -102t-108 -38z" />
    <glyph glyph-name="uni0136" unicode="&#x136;" horiz-adv-x="607" 
d="M70 0v644h82v-319l301 319h96l-240 -258l248 -386h-88l-212 333l-105 -111v-222h-82zM247 -214l28 177h74l-42 -177h-60z" />
    <glyph glyph-name="uni0137" unicode="&#x137;" horiz-adv-x="530" 
d="M70 0v674h82v-409l222 209h95l-194 -188l205 -286h-86l-171 242l-71 -67v-175h-82zM204 -214l28 177h74l-42 -177h-60z" />
    <glyph glyph-name="kgreenlandic" unicode="&#x138;" horiz-adv-x="530" 
d="M70 0v474h82v-228l222 228h95l-194 -202l205 -272h-86l-170 227l-72 -74v-153h-82z" />
    <glyph glyph-name="Lacute" unicode="&#x139;" horiz-adv-x="525" 
d="M70 688l71 168h74l-79 -168h-66zM70 0v644h82v-580h343v-64h-425z" />
    <glyph glyph-name="lacute" unicode="&#x13a;" horiz-adv-x="263" 
d="M70 728l71 168h74l-79 -168h-66zM173 -10q-48 0 -75.5 25.5t-27.5 86.5v572h82v-563q0 -30 10 -41t31 -11q23 0 45 6v-65q-16 -6 -32 -8t-33 -2z" />
    <glyph glyph-name="uni013B" unicode="&#x13b;" horiz-adv-x="525" 
d="M70 0v644h82v-580h343v-64h-425zM221 -214l28 177h74l-42 -177h-60z" />
    <glyph glyph-name="uni013C" unicode="&#x13c;" horiz-adv-x="263" 
d="M173 -10q-48 0 -75.5 25.5t-27.5 86.5v572h82v-563q0 -30 10 -41t31 -11q23 0 45 6v-65q-16 -6 -32 -8t-33 -2zM106 -214l28 177h74l-42 -177h-60z" />
    <glyph glyph-name="Lcaron" unicode="&#x13d;" horiz-adv-x="525" 
d="M70 0v644h82v-580h343v-64h-425zM301 467l28 177h74l-42 -177h-60z" />
    <glyph glyph-name="lcaron" unicode="&#x13e;" horiz-adv-x="325" 
d="M173 -10q-48 0 -75.5 25.5t-27.5 86.5v572h82v-563q0 -30 10 -41t31 -11q23 0 45 6v-65q-16 -6 -32 -8t-33 -2zM210 497l28 177h74l-42 -177h-60z" />
    <glyph glyph-name="Ldot" unicode="&#x13f;" horiz-adv-x="525" 
d="M70 0v644h82v-580h343v-64h-425zM346 259v77h80v-77h-80z" />
    <glyph glyph-name="ldot" unicode="&#x140;" horiz-adv-x="312" 
d="M173 -10q-48 0 -75.5 25.5t-27.5 86.5v572h82v-563q0 -30 10 -41t31 -11q23 0 45 6v-65q-16 -6 -32 -8t-33 -2zM229 266v77h80v-77h-80z" />
    <glyph glyph-name="Lslash" unicode="&#x141;" horiz-adv-x="525" 
d="M70 0v278l-100 -44v71l100 44v295h82v-259l134 59v-71l-134 -59v-250h343v-64h-425z" />
    <glyph glyph-name="lslash" unicode="&#x142;" horiz-adv-x="263" 
d="M173 -10q-48 0 -75.5 25.5t-27.5 86.5v180l-108 -48v71l108 48v321h82v-285l126 55v-71l-126 -55v-207q0 -30 10 -41t31 -11q23 0 45 6v-65q-16 -6 -32 -8t-33 -2z" />
    <glyph glyph-name="Nacute" unicode="&#x143;" horiz-adv-x="663" 
d="M296 688l71 168h74l-79 -168h-66zM70 0v644h74l367 -518v518h82v-644h-75l-366 517v-517h-82z" />
    <glyph glyph-name="nacute" unicode="&#x144;" horiz-adv-x="570" 
d="M237 522l71 168h74l-79 -168h-66zM70 0v474h74l5 -54q34 28 79.5 46t104.5 18q90 0 131 -42t41 -132v-310h-82v307q0 62 -25 86.5t-96 24.5q-44 0 -83 -16t-67 -44v-358h-82z" />
    <glyph glyph-name="uni0145" unicode="&#x145;" horiz-adv-x="663" 
d="M70 0v644h74l367 -518v518h82v-644h-75l-366 517v-517h-82zM279 -214l28 177h74l-42 -177h-60z" />
    <glyph glyph-name="uni0146" unicode="&#x146;" horiz-adv-x="570" 
d="M70 0v474h74l5 -54q34 28 79.5 46t104.5 18q90 0 131 -42t41 -132v-310h-82v307q0 62 -25 86.5t-96 24.5q-44 0 -83 -16t-67 -44v-358h-82zM233 -214l28 177h74l-42 -177h-60z" />
    <glyph glyph-name="Ncaron" unicode="&#x147;" horiz-adv-x="663" 
d="M313 688l-115 148h71l77 -102l77 102h71l-115 -148h-66zM70 0v644h74l367 -518v518h82v-644h-75l-366 517v-517h-82z" />
    <glyph glyph-name="ncaron" unicode="&#x148;" horiz-adv-x="570" 
d="M241 522l-115 148h71l77 -102l77 102h71l-115 -148h-66zM70 0v474h74l5 -54q34 28 79.5 46t104.5 18q90 0 131 -42t41 -132v-310h-82v307q0 62 -25 86.5t-96 24.5q-44 0 -83 -16t-67 -44v-358h-82z" />
    <glyph glyph-name="napostrophe" unicode="&#x149;" horiz-adv-x="657" 
d="M33 472l28 177h74l-42 -177h-60zM157 0v474h74l5 -54q34 28 79.5 46t104.5 18q90 0 131 -42t41 -132v-310h-82v307q0 62 -25 86.5t-96 24.5q-44 0 -83 -16t-67 -44v-358h-82z" />
    <glyph glyph-name="Eng" unicode="&#x14a;" horiz-adv-x="663" 
d="M448 -234q-50 0 -89 14v65q17 -5 32.5 -7.5t28.5 -2.5q54 0 72.5 18t18.5 60v97l-359 507v-517h-82v644h74l367 -518v518h82v-738q0 -64 -37 -102t-108 -38z" />
    <glyph glyph-name="eng" unicode="&#x14b;" horiz-adv-x="570" 
d="M360 -234q-50 0 -89 14v65q17 -5 32.5 -7.5t28.5 -2.5q54 0 72.5 18t18.5 60v394q0 62 -25 86.5t-96 24.5q-44 0 -83 -16t-67 -44v-358h-82v474h74l5 -54q34 28 79.5 46t104.5 18q90 0 131 -42t41 -132v-404q0 -64 -37 -102t-108 -38z" />
    <glyph glyph-name="Omacron" unicode="&#x14c;" horiz-adv-x="694" 
d="M203 720v59h288v-59h-288zM347 -10q-151 0 -224 79.5t-73 252.5t73 252.5t224 79.5q152 0 224.5 -79.5t72.5 -252.5t-72.5 -252.5t-224.5 -79.5zM347 60q73 0 120.5 25t71 82.5t23.5 154.5t-23.5 154.5t-71 82.5t-120.5 25t-120.5 -25t-71 -82.5t-23.5 -154.5
t23.5 -154.5t71 -82.5t120.5 -25z" />
    <glyph glyph-name="omacron" unicode="&#x14d;" horiz-adv-x="574" 
d="M143 554v59h288v-59h-288zM287 -10q-124 0 -180.5 63.5t-56.5 183.5q0 119 57 183t180 64t180 -64t57 -183q0 -120 -56 -183.5t-181 -63.5zM287 60q85 0 120 42.5t35 134.5t-35.5 134.5t-119.5 42.5t-119.5 -42.5t-35.5 -134.5t35 -134.5t120 -42.5z" />
    <glyph glyph-name="Obreve" unicode="&#x14e;" horiz-adv-x="694" 
d="M346 688q-62 0 -94 35t-32 91h58q0 -38 18.5 -56t49.5 -18q33 0 51.5 18t18.5 56h58q0 -56 -32.5 -91t-95.5 -35zM347 -10q-151 0 -224 79.5t-73 252.5t73 252.5t224 79.5q152 0 224.5 -79.5t72.5 -252.5t-72.5 -252.5t-224.5 -79.5zM347 60q73 0 120.5 25t71 82.5
t23.5 154.5t-23.5 154.5t-71 82.5t-120.5 25t-120.5 -25t-71 -82.5t-23.5 -154.5t23.5 -154.5t71 -82.5t120.5 -25z" />
    <glyph glyph-name="obreve" unicode="&#x14f;" horiz-adv-x="574" 
d="M286 522q-62 0 -94 35t-32 91h58q0 -38 18.5 -56t49.5 -18q33 0 51.5 18t18.5 56h58q0 -56 -32.5 -91t-95.5 -35zM287 -10q-124 0 -180.5 63.5t-56.5 183.5q0 119 57 183t180 64t180 -64t57 -183q0 -120 -56 -183.5t-181 -63.5zM287 60q85 0 120 42.5t35 134.5
t-35.5 134.5t-119.5 42.5t-119.5 -42.5t-35.5 -134.5t35 -134.5t120 -42.5z" />
    <glyph glyph-name="Ohungarumlaut" unicode="&#x150;" horiz-adv-x="694" 
d="M188 688l71 152h78l-81 -152h-68zM394 688l71 152h78l-81 -152h-68zM347 -10q-151 0 -224 79.5t-73 252.5t73 252.5t224 79.5q152 0 224.5 -79.5t72.5 -252.5t-72.5 -252.5t-224.5 -79.5zM347 60q73 0 120.5 25t71 82.5t23.5 154.5t-23.5 154.5t-71 82.5t-120.5 25
t-120.5 -25t-71 -82.5t-23.5 -154.5t23.5 -154.5t71 -82.5t120.5 -25z" />
    <glyph glyph-name="ohungarumlaut" unicode="&#x151;" horiz-adv-x="574" 
d="M152 522l71 152h78l-81 -152h-68zM358 522l71 152h78l-81 -152h-68zM287 -10q-124 0 -180.5 63.5t-56.5 183.5q0 119 57 183t180 64t180 -64t57 -183q0 -120 -56 -183.5t-181 -63.5zM287 60q85 0 120 42.5t35 134.5t-35.5 134.5t-119.5 42.5t-119.5 -42.5t-35.5 -134.5
t35 -134.5t120 -42.5z" />
    <glyph glyph-name="OE" unicode="&#x152;" horiz-adv-x="1047" 
d="M347 -10q-151 0 -224 79.5t-73 252.5t73 252.5t224 79.5q143 0 215 -70v60h435v-65h-353v-225h317v-64h-317v-226h353v-64h-435v60q-72 -70 -215 -70zM347 60q73 0 120.5 25t71 82.5t23.5 154.5t-23.5 154.5t-71 82.5t-120.5 25t-120.5 -25t-71 -82.5t-23.5 -154.5
t23.5 -154.5t71 -82.5t120.5 -25z" />
    <glyph glyph-name="oe" unicode="&#x153;" horiz-adv-x="925" 
d="M287 -10q-124 0 -180.5 63.5t-56.5 183.5q0 119 57 183t180 64q71 0 119.5 -21.5t76.5 -62.5q27 41 73 62.5t113 21.5q70 0 115.5 -25.5t68 -70t22.5 -100.5v-89h-351q4 -54 23.5 -85t59 -44.5t104.5 -13.5q73 0 134 25v-64q-31 -13 -69.5 -20t-80.5 -7q-150 0 -210 85
q-28 -42 -77 -63.5t-121 -21.5zM524 258h278v39q0 58 -30.5 89.5t-100.5 31.5q-85 0 -116 -40t-31 -120zM287 60q85 0 120 42.5t35 134.5t-35.5 134.5t-119.5 42.5t-119.5 -42.5t-35.5 -134.5t35 -134.5t120 -42.5z" />
    <glyph glyph-name="Racute" unicode="&#x154;" horiz-adv-x="602" 
d="M245 688l71 168h74l-79 -168h-66zM70 0v644h283q104 0 151.5 -54t47.5 -146q0 -71 -34.5 -118t-102.5 -63q20 -12 30.5 -27.5t21.5 -41.5l84 -194h-84l-82 187q-13 30 -31.5 43t-65.5 13h-136v-243h-82zM152 307h178q65 0 102.5 32.5t37.5 104.5q0 135 -129 135h-189
v-272z" />
    <glyph glyph-name="racute" unicode="&#x155;" horiz-adv-x="356" 
d="M78 522l71 168h74l-79 -168h-66zM70 0v474h74l6 -60q35 23 82.5 42t93.5 28v-64q-28 -6 -61 -16.5t-63 -23.5t-50 -27v-353h-82z" />
    <glyph glyph-name="uni0156" unicode="&#x156;" horiz-adv-x="602" 
d="M70 0v644h283q104 0 151.5 -54t47.5 -146q0 -71 -34.5 -118t-102.5 -63q20 -12 30.5 -27.5t21.5 -41.5l84 -194h-84l-82 187q-13 30 -31.5 43t-65.5 13h-136v-243h-82zM152 307h178q65 0 102.5 32.5t37.5 104.5q0 135 -129 135h-189v-272zM221 -214l28 177h74l-42 -177
h-60z" />
    <glyph glyph-name="uni0157" unicode="&#x157;" horiz-adv-x="356" 
d="M70 0v474h74l6 -60q35 23 82.5 42t93.5 28v-64q-28 -6 -61 -16.5t-63 -23.5t-50 -27v-353h-82zM43 -214l28 177h74l-42 -177h-60z" />
    <glyph glyph-name="Rcaron" unicode="&#x158;" horiz-adv-x="602" 
d="M256 688l-115 148h71l77 -102l77 102h71l-115 -148h-66zM70 0v644h283q104 0 151.5 -54t47.5 -146q0 -71 -34.5 -118t-102.5 -63q20 -12 30.5 -27.5t21.5 -41.5l84 -194h-84l-82 187q-13 30 -31.5 43t-65.5 13h-136v-243h-82zM152 307h178q65 0 102.5 32.5t37.5 104.5
q0 135 -129 135h-189v-272z" />
    <glyph glyph-name="rcaron" unicode="&#x159;" horiz-adv-x="356" 
d="M153 522l-115 148h71l77 -102l77 102h71l-115 -148h-66zM70 0v474h74l6 -60q35 23 82.5 42t93.5 28v-64q-28 -6 -61 -16.5t-63 -23.5t-50 -27v-353h-82z" />
    <glyph glyph-name="Sacute" unicode="&#x15a;" horiz-adv-x="556" 
d="M223 688l71 168h74l-79 -168h-66zM259 -10q-120 0 -194 30v73q42 -16 89.5 -24.5t97.5 -8.5q86 0 129 23.5t43 84.5q0 38 -17.5 60.5t-57.5 38t-107 31.5q-106 26 -149 67.5t-43 111.5q0 82 59 129.5t180 47.5q56 0 104 -8t74 -17v-72q-36 13 -78 20t-87 7
q-82 0 -126 -24t-44 -83q0 -33 15.5 -53.5t52.5 -35t103 -30.5q79 -19 123 -45.5t62 -62.5t18 -82q0 -85 -62 -131.5t-185 -46.5z" />
    <glyph glyph-name="sacute" unicode="&#x15b;" horiz-adv-x="457" 
d="M182 522l71 168h74l-79 -168h-66zM219 -10q-46 0 -87.5 6t-69.5 16v72q34 -12 71.5 -18t74.5 -6q63 0 90 13.5t27 50.5q0 27 -14.5 41t-44 25t-75.5 26q-41 14 -73 29t-50 40.5t-18 68.5q0 63 44 96.5t142 33.5q38 0 73 -5.5t61 -13.5v-72q-63 21 -121 21
q-62 0 -89.5 -12.5t-27.5 -46.5q0 -23 12.5 -36.5t39 -23t68.5 -23.5q55 -17 89 -35t50 -44t16 -68q0 -70 -49 -102.5t-139 -32.5z" />
    <glyph glyph-name="Scircumflex" unicode="&#x15c;" horiz-adv-x="556" 
d="M133 688l115 148h66l115 -148h-71l-77 102l-77 -102h-71zM259 -10q-120 0 -194 30v73q42 -16 89.5 -24.5t97.5 -8.5q86 0 129 23.5t43 84.5q0 38 -17.5 60.5t-57.5 38t-107 31.5q-106 26 -149 67.5t-43 111.5q0 82 59 129.5t180 47.5q56 0 104 -8t74 -17v-72
q-36 13 -78 20t-87 7q-82 0 -126 -24t-44 -83q0 -33 15.5 -53.5t52.5 -35t103 -30.5q79 -19 123 -45.5t62 -62.5t18 -82q0 -85 -62 -131.5t-185 -46.5z" />
    <glyph glyph-name="scircumflex" unicode="&#x15d;" horiz-adv-x="457" 
d="M87 522l115 148h66l115 -148h-71l-77 102l-77 -102h-71zM219 -10q-46 0 -87.5 6t-69.5 16v72q34 -12 71.5 -18t74.5 -6q63 0 90 13.5t27 50.5q0 27 -14.5 41t-44 25t-75.5 26q-41 14 -73 29t-50 40.5t-18 68.5q0 63 44 96.5t142 33.5q38 0 73 -5.5t61 -13.5v-72
q-63 21 -121 21q-62 0 -89.5 -12.5t-27.5 -46.5q0 -23 12.5 -36.5t39 -23t68.5 -23.5q55 -17 89 -35t50 -44t16 -68q0 -70 -49 -102.5t-139 -32.5z" />
    <glyph glyph-name="Scedilla" unicode="&#x15e;" horiz-adv-x="556" 
d="M242 -240q-16 0 -37.5 2.5t-32.5 5.5v50q29 -8 63 -8q47 0 68.5 11t21.5 42q0 29 -21 37.5t-64 8.5h-37l26 81q-100 4 -164 30v73q42 -16 89.5 -24.5t97.5 -8.5q86 0 129 23.5t43 84.5q0 38 -17.5 60.5t-57.5 38t-107 31.5q-106 26 -149 67.5t-43 111.5q0 82 59 129.5
t180 47.5q56 0 104 -8t74 -17v-72q-36 13 -78 20t-87 7q-82 0 -126 -24t-44 -83q0 -33 15.5 -53.5t52.5 -35t103 -30.5q79 -19 123 -45.5t62 -62.5t18 -82q0 -81 -55 -126.5t-164 -50.5l-13 -39q55 0 83 -23.5t28 -66.5q0 -49 -34.5 -75.5t-108.5 -26.5z" />
    <glyph glyph-name="scedilla" unicode="&#x15f;" horiz-adv-x="457" 
d="M204 -240q-16 0 -37.5 2.5t-32.5 5.5v50q29 -8 63 -8q47 0 68.5 11t21.5 42q0 29 -21 37.5t-64 8.5h-37l26 82q-38 1 -72 7t-57 14v72q34 -12 71.5 -18t74.5 -6q63 0 90 13.5t27 50.5q0 27 -14.5 41t-44 25t-75.5 26q-41 14 -73 29t-50 40.5t-18 68.5q0 63 44 96.5
t142 33.5q38 0 73 -5.5t61 -13.5v-72q-63 21 -121 21q-62 0 -89.5 -12.5t-27.5 -46.5q0 -23 12.5 -36.5t39 -23t68.5 -23.5q55 -17 89 -35t50 -44t16 -68q0 -64 -41 -96.5t-117 -37.5l-13 -39q55 0 83 -23.5t28 -66.5q0 -49 -34.5 -75.5t-108.5 -26.5z" />
    <glyph glyph-name="Scaron" unicode="&#x160;" horiz-adv-x="556" 
d="M263 688l-115 148h71l77 -102l77 102h71l-115 -148h-66zM259 -10q-120 0 -194 30v73q42 -16 89.5 -24.5t97.5 -8.5q86 0 129 23.5t43 84.5q0 38 -17.5 60.5t-57.5 38t-107 31.5q-106 26 -149 67.5t-43 111.5q0 82 59 129.5t180 47.5q56 0 104 -8t74 -17v-72
q-36 13 -78 20t-87 7q-82 0 -126 -24t-44 -83q0 -33 15.5 -53.5t52.5 -35t103 -30.5q79 -19 123 -45.5t62 -62.5t18 -82q0 -85 -62 -131.5t-185 -46.5z" />
    <glyph glyph-name="scaron" unicode="&#x161;" horiz-adv-x="457" 
d="M204 522l-115 148h71l77 -102l77 102h71l-115 -148h-66zM219 -10q-46 0 -87.5 6t-69.5 16v72q34 -12 71.5 -18t74.5 -6q63 0 90 13.5t27 50.5q0 27 -14.5 41t-44 25t-75.5 26q-41 14 -73 29t-50 40.5t-18 68.5q0 63 44 96.5t142 33.5q38 0 73 -5.5t61 -13.5v-72
q-63 21 -121 21q-62 0 -89.5 -12.5t-27.5 -46.5q0 -23 12.5 -36.5t39 -23t68.5 -23.5q55 -17 89 -35t50 -44t16 -68q0 -70 -49 -102.5t-139 -32.5z" />
    <glyph glyph-name="uni0162" unicode="&#x162;" horiz-adv-x="570" 
d="M244 0v579h-214v65h510v-65h-214v-579h-13l-16 -48q55 0 83 -23.5t28 -66.5q0 -49 -34.5 -75.5t-108.5 -26.5q-16 0 -37.5 2.5t-32.5 5.5v50q29 -8 63 -8q47 0 68.5 11t21.5 42q0 29 -21 37.5t-64 8.5h-37l29 91h-11z" />
    <glyph glyph-name="uni0163" unicode="&#x163;" horiz-adv-x="358" 
d="M203 -240q-16 0 -37.5 2.5t-32.5 5.5v50q29 -8 63 -8q47 0 68.5 11t21.5 42q0 29 -21 37.5t-64 8.5h-37l28 87q-45 13 -67.5 48t-22.5 88v277h-72v65h72v117l82 25v-142h131l-5 -65h-126v-273q0 -43 19.5 -61.5t67.5 -18.5q26 0 57 10v-62q-37 -14 -80 -14l-13 -38
q55 0 83 -23.5t28 -66.5q0 -49 -34.5 -75.5t-108.5 -26.5z" />
    <glyph glyph-name="Tcaron" unicode="&#x164;" horiz-adv-x="570" 
d="M252 688l-115 148h71l77 -102l77 102h71l-115 -148h-66zM244 0v579h-214v65h510v-65h-214v-579h-82z" />
    <glyph glyph-name="tcaron" unicode="&#x165;" horiz-adv-x="358" 
d="M295 560l28 177h74l-42 -177h-60zM243 -10q-70 0 -105.5 37.5t-35.5 104.5v277h-72v65h72v117l82 25v-142h131l-5 -65h-126v-273q0 -43 19.5 -61.5t67.5 -18.5q26 0 57 10v-62q-37 -14 -85 -14z" />
    <glyph glyph-name="Tbar" unicode="&#x166;" horiz-adv-x="570" 
d="M244 0v320h-155v62h155v197h-214v65h510v-65h-214v-197h125v-62h-125v-320h-82z" />
    <glyph glyph-name="tbar" unicode="&#x167;" horiz-adv-x="370" 
d="M43 220v58h71v131h-72v65h72v117l82 25v-142h131l-5 -65h-126v-131h131v-58h-131v-84q0 -43 19.5 -61.5t67.5 -18.5q26 0 57 10v-62q-37 -14 -85 -14q-70 0 -105.5 37.5t-35.5 104.5v88h-71z" />
    <glyph glyph-name="Utilde" unicode="&#x168;" horiz-adv-x="671" 
d="M399 708q-26 0 -51 9.5t-48 19t-45 9.5q-24 0 -45 -7.5t-38 -27.5v63q12 14 36 22t47 8q28 0 51.5 -9.5t46 -19t46.5 -9.5q51 0 77 36v-64q-10 -13 -30.5 -21.5t-46.5 -8.5zM336 -10q-132 0 -201.5 63t-69.5 183v408h82v-409q0 -88 49.5 -131.5t139.5 -43.5
q89 0 138.5 43.5t49.5 131.5v409h82v-408q0 -120 -69.5 -183t-200.5 -63z" />
    <glyph glyph-name="utilde" unicode="&#x169;" horiz-adv-x="570" 
d="M354 542q-26 0 -51 9.5t-48 19t-45 9.5q-24 0 -45 -7.5t-38 -27.5v63q12 14 36 22t47 8q28 0 51.5 -9.5t46 -19t46.5 -9.5q51 0 77 36v-64q-10 -13 -30.5 -21.5t-46.5 -8.5zM237 -10q-85 0 -128.5 47t-43.5 137v300h82v-303q0 -59 29.5 -87t91.5 -28q44 0 83 16t67 44
v358h82v-474h-74l-5 54q-34 -28 -81 -46t-103 -18z" />
    <glyph glyph-name="Umacron" unicode="&#x16a;" horiz-adv-x="671" 
d="M180 720v59h288v-59h-288zM336 -10q-132 0 -201.5 63t-69.5 183v408h82v-409q0 -88 49.5 -131.5t139.5 -43.5q89 0 138.5 43.5t49.5 131.5v409h82v-408q0 -120 -69.5 -183t-200.5 -63z" />
    <glyph glyph-name="umacron" unicode="&#x16b;" horiz-adv-x="570" 
d="M133 554v59h288v-59h-288zM237 -10q-85 0 -128.5 47t-43.5 137v300h82v-303q0 -59 29.5 -87t91.5 -28q44 0 83 16t67 44v358h82v-474h-74l-5 54q-34 -28 -81 -46t-103 -18z" />
    <glyph glyph-name="Ubreve" unicode="&#x16c;" horiz-adv-x="671" 
d="M315 688q-62 0 -94 35t-32 91h58q0 -38 18.5 -56t49.5 -18q33 0 51.5 18t18.5 56h58q0 -56 -32.5 -91t-95.5 -35zM336 -10q-132 0 -201.5 63t-69.5 183v408h82v-409q0 -88 49.5 -131.5t139.5 -43.5q89 0 138.5 43.5t49.5 131.5v409h82v-408q0 -120 -69.5 -183t-200.5 -63
z" />
    <glyph glyph-name="ubreve" unicode="&#x16d;" horiz-adv-x="570" 
d="M279 522q-62 0 -94 35t-32 91h58q0 -38 18.5 -56t49.5 -18q33 0 51.5 18t18.5 56h58q0 -56 -32.5 -91t-95.5 -35zM237 -10q-85 0 -128.5 47t-43.5 137v300h82v-303q0 -59 29.5 -87t91.5 -28q44 0 83 16t67 44v358h82v-474h-74l-5 54q-34 -28 -81 -46t-103 -18z" />
    <glyph glyph-name="Uring" unicode="&#x16e;" horiz-adv-x="671" 
d="M323 688q-48 0 -78.5 31t-30.5 76t30.5 76.5t78.5 31.5q50 0 80.5 -31.5t30.5 -76.5t-30.5 -76t-80.5 -31zM323 734q28 0 45 18t17 43q0 26 -17 43.5t-45 17.5q-26 0 -43.5 -17.5t-17.5 -43.5q0 -25 17.5 -43t43.5 -18zM336 -10q-132 0 -201.5 63t-69.5 183v408h82v-409
q0 -88 49.5 -131.5t139.5 -43.5q89 0 138.5 43.5t49.5 131.5v409h82v-408q0 -120 -69.5 -183t-200.5 -63z" />
    <glyph glyph-name="uring" unicode="&#x16f;" horiz-adv-x="570" 
d="M272 522q-48 0 -78.5 31t-30.5 76t30.5 76.5t78.5 31.5q50 0 80.5 -31.5t30.5 -76.5t-30.5 -76t-80.5 -31zM272 568q28 0 45 18t17 43q0 26 -17 43.5t-45 17.5q-26 0 -43.5 -17.5t-17.5 -43.5q0 -25 17.5 -43t43.5 -18zM237 -10q-85 0 -128.5 47t-43.5 137v300h82v-303
q0 -59 29.5 -87t91.5 -28q44 0 83 16t67 44v358h82v-474h-74l-5 54q-34 -28 -81 -46t-103 -18z" />
    <glyph glyph-name="Uhungarumlaut" unicode="&#x170;" horiz-adv-x="671" 
d="M160 688l71 152h78l-81 -152h-68zM366 688l71 152h78l-81 -152h-68zM336 -10q-132 0 -201.5 63t-69.5 183v408h82v-409q0 -88 49.5 -131.5t139.5 -43.5q89 0 138.5 43.5t49.5 131.5v409h82v-408q0 -120 -69.5 -183t-200.5 -63z" />
    <glyph glyph-name="uhungarumlaut" unicode="&#x171;" horiz-adv-x="570" 
d="M113 522l71 152h78l-81 -152h-68zM319 522l71 152h78l-81 -152h-68zM237 -10q-85 0 -128.5 47t-43.5 137v300h82v-303q0 -59 29.5 -87t91.5 -28q44 0 83 16t67 44v358h82v-474h-74l-5 54q-34 -28 -81 -46t-103 -18z" />
    <glyph glyph-name="Uogonek" unicode="&#x172;" horiz-adv-x="671" 
d="M345 -220q-40 0 -69.5 20.5t-29.5 67.5q0 35 17.5 67.5t45.5 55.5q-119 6 -181.5 68.5t-62.5 176.5v408h82v-409q0 -88 49.5 -131.5t139.5 -43.5q89 0 138.5 43.5t49.5 131.5v409h82v-408q0 -111 -59.5 -173.5t-172.5 -71.5q-61 -50 -61 -111q0 -25 12.5 -34t37.5 -9
q13 0 27 3t23 8v-56q-12 -6 -31 -9t-37 -3z" />
    <glyph glyph-name="uogonek" unicode="&#x173;" horiz-adv-x="570" 
d="M237 -10q-85 0 -128.5 47t-43.5 137v300h82v-303q0 -59 29.5 -87t91.5 -28q44 0 83 16t67 44v358h82v-474h-10q-72 -54 -72 -120q0 -25 12.5 -34t37.5 -9q13 0 27 3t23 8v-56q-12 -6 -31 -9t-37 -3q-40 0 -69.5 20.5t-29.5 67.5q0 39 21 74.5t54 57.5l-5 54
q-34 -28 -81 -46t-103 -18z" />
    <glyph glyph-name="Wcircumflex" unicode="&#x174;" horiz-adv-x="861" 
d="M287 688l115 148h66l115 -148h-71l-77 102l-77 -102h-71zM200 0l-150 644h81l121 -530l139 459v71h67l150 -530l123 530h80l-149 -644h-87l-140 490l-147 -490h-88z" />
    <glyph glyph-name="wcircumflex" unicode="&#x175;" horiz-adv-x="736" 
d="M221 522l115 148h66l115 -148h-71l-77 102l-77 -102h-71zM174 0l-124 474h82l93 -381l106 326v55h63l117 -381l93 381h82l-124 -474h-82l-111 344l-113 -344h-82z" />
    <glyph glyph-name="Ycircumflex" unicode="&#x176;" horiz-adv-x="642" 
d="M173 688l115 148h66l115 -148h-71l-77 102l-77 -102h-71zM280 0v240l-230 404h85l186 -334l186 334h85l-230 -404v-240h-82z" />
    <glyph glyph-name="ycircumflex" unicode="&#x177;" horiz-adv-x="584" 
d="M154 522l115 148h66l115 -148h-71l-77 102l-77 -102h-71zM159 -176q-47 0 -82 13v66q17 -6 31.5 -8t29.5 -2q34 0 53.5 12t34.5 36.5t33 63.5l-209 469h85l165 -382l170 382h84l-199 -453q-25 -57 -51 -101.5t-60 -70t-85 -25.5z" />
    <glyph glyph-name="Ydieresis" unicode="&#x178;" horiz-adv-x="642" 
d="M194 711v75h78v-75h-78zM370 711v75h78v-75h-78zM280 0v240l-230 404h85l186 -334l186 334h85l-230 -404v-240h-82z" />
    <glyph glyph-name="Zacute" unicode="&#x179;" horiz-adv-x="572" 
d="M260 688l71 168h74l-79 -168h-66zM50 0v46l368 533h-351v65h455v-51l-365 -529h370v-64h-477z" />
    <glyph glyph-name="zacute" unicode="&#x17a;" horiz-adv-x="485" 
d="M206 522l71 168h74l-79 -168h-66zM50 0v45l279 364h-266v65h365v-51l-275 -359h282v-64h-385z" />
    <glyph glyph-name="Zdotaccent" unicode="&#x17b;" horiz-adv-x="572" 
d="M255 710v77h80v-77h-80zM50 0v46l368 533h-351v65h455v-51l-365 -529h370v-64h-477z" />
    <glyph glyph-name="zdotaccent" unicode="&#x17c;" horiz-adv-x="485" 
d="M202 544v77h80v-77h-80zM50 0v45l279 364h-266v65h365v-51l-275 -359h282v-64h-385z" />
    <glyph glyph-name="Zcaron" unicode="&#x17d;" horiz-adv-x="572" 
d="M270 688l-115 148h71l77 -102l77 102h71l-115 -148h-66zM50 0v46l368 533h-351v65h455v-51l-365 -529h370v-64h-477z" />
    <glyph glyph-name="zcaron" unicode="&#x17e;" horiz-adv-x="485" 
d="M199 522l-115 148h71l77 -102l77 102h71l-115 -148h-66zM50 0v45l279 364h-266v65h365v-51l-275 -359h282v-64h-385z" />
    <glyph glyph-name="uni018F" unicode="&#x18f;" horiz-adv-x="670" 
d="M321 -10q-93 0 -153 34t-89 93.5t-29 135.5v106h495q-3 79 -30.5 129.5t-86 75t-156.5 24.5q-43 0 -92 -10t-90 -27v66q41 17 94 27t106 10q171 0 250.5 -84.5t79.5 -254.5q0 -100 -30.5 -173t-96 -112.5t-172.5 -39.5zM321 56q116 0 170 61.5t54 182.5h-422v-60
q0 -91 52 -137.5t146 -46.5z" />
    <glyph glyph-name="florin" unicode="&#x192;" horiz-adv-x="518" 
d="M-3 -123q-25 0 -45 4t-37 11l13 62q28 -11 63 -11q50 0 72 18.5t32 62.5l81 385h-71l14 65h71l15 69q16 72 58 109.5t121 37.5q26 0 47 -4t37 -11l-13 -62q-30 11 -64 11q-47 0 -71 -18.5t-33 -62.5l-15 -69h128l-18 -65h-124l-81 -385q-15 -67 -58 -107t-122 -40z" />
    <glyph glyph-name="Ohorn" unicode="&#x1a0;" horiz-adv-x="760" 
d="M347 -10q-151 0 -224 79.5t-73 252.5t73 252.5t224 79.5q152 0 225 -80q57 1 77 24.5t20 89.5h71q0 -89 -33 -129.5t-95 -48.5q32 -75 32 -188q0 -173 -72.5 -252.5t-224.5 -79.5zM347 60q73 0 120.5 25t71 82.5t23.5 154.5t-23.5 154.5t-71 82.5t-120.5 25t-120.5 -25
t-71 -82.5t-23.5 -154.5t23.5 -154.5t71 -82.5t120.5 -25z" />
    <glyph glyph-name="ohorn" unicode="&#x1a1;" horiz-adv-x="658" 
d="M287 -10q-124 0 -180.5 63.5t-56.5 183.5q0 119 57 183t180 64q64 0 109.5 -17.5t74.5 -51.5q58 1 77 27.5t19 93.5h71q0 -91 -34 -132t-99 -49q19 -48 19 -118q0 -120 -56 -183.5t-181 -63.5zM287 60q85 0 120 42.5t35 134.5t-35.5 134.5t-119.5 42.5t-119.5 -42.5
t-35.5 -134.5t35 -134.5t120 -42.5z" />
    <glyph glyph-name="Uhorn" unicode="&#x1af;" horiz-adv-x="775" 
d="M336 -10q-132 0 -201.5 63t-69.5 183v408h82v-409q0 -88 49.5 -131.5t139.5 -43.5q89 0 138.5 43.5t49.5 131.5v409h82v-75q58 1 78 26.5t20 92.5h71q0 -102 -42 -142t-127 -41v-269q0 -120 -69.5 -183t-200.5 -63z" />
    <glyph glyph-name="uhorn" unicode="&#x1b0;" horiz-adv-x="683" 
d="M237 -10q-85 0 -128.5 47t-43.5 137v300h82v-303q0 -59 29.5 -87t91.5 -28q44 0 83 16t67 44v358h82v-59q49 4 65.5 31.5t16.5 89.5h71q0 -91 -39.5 -135.5t-113.5 -45.5v-355h-74l-5 54q-34 -28 -81 -46t-103 -18z" />
    <glyph glyph-name="uni01CD" unicode="&#x1cd;" horiz-adv-x="685" 
d="M309 688l-115 148h71l77 -102l77 102h71l-115 -148h-66zM50 0l245 644h96l244 -644h-84l-68 177h-280l-68 -177h-85zM217 242h251l-126 331z" />
    <glyph glyph-name="uni01CE" unicode="&#x1ce;" horiz-adv-x="541" 
d="M247 522l-115 148h71l77 -102l77 102h71l-115 -148h-66zM217 -10q-45 0 -83 16t-61 47.5t-23 79.5q0 65 43 106.5t140 41.5h165v29q0 39 -10.5 62t-39.5 33t-85 10q-43 0 -83 -7t-75 -19v68q32 12 75.5 19.5t93.5 7.5q101 0 151.5 -41t50.5 -133v-310h-69l-6 54
q-31 -32 -75 -48t-109 -16zM238 57q52 0 92 18.5t68 50.5v92h-163q-56 0 -80 -21t-24 -64t29 -59.5t78 -16.5z" />
    <glyph glyph-name="uni01CF" unicode="&#x1cf;" horiz-adv-x="222" 
d="M79 688l-115 148h71l77 -102l77 102h71l-115 -148h-66zM70 0v644h82v-644h-82z" />
    <glyph glyph-name="uni01D0" unicode="&#x1d0;" horiz-adv-x="295" 
d="M130 522l-115 148h71l77 -102l77 102h71l-115 -148h-66zM143 0v409h-73l8 65h147v-474h-82z" />
    <glyph glyph-name="uni01D1" unicode="&#x1d1;" horiz-adv-x="694" 
d="M314 688l-115 148h71l77 -102l77 102h71l-115 -148h-66zM347 -10q-151 0 -224 79.5t-73 252.5t73 252.5t224 79.5q152 0 224.5 -79.5t72.5 -252.5t-72.5 -252.5t-224.5 -79.5zM347 60q73 0 120.5 25t71 82.5t23.5 154.5t-23.5 154.5t-71 82.5t-120.5 25t-120.5 -25
t-71 -82.5t-23.5 -154.5t23.5 -154.5t71 -82.5t120.5 -25z" />
    <glyph glyph-name="uni01D2" unicode="&#x1d2;" horiz-adv-x="574" 
d="M254 522l-115 148h71l77 -102l77 102h71l-115 -148h-66zM287 -10q-124 0 -180.5 63.5t-56.5 183.5q0 119 57 183t180 64t180 -64t57 -183q0 -120 -56 -183.5t-181 -63.5zM287 60q85 0 120 42.5t35 134.5t-35.5 134.5t-119.5 42.5t-119.5 -42.5t-35.5 -134.5t35 -134.5
t120 -42.5z" />
    <glyph glyph-name="uni01D3" unicode="&#x1d3;" horiz-adv-x="671" 
d="M302 688l-115 148h71l77 -102l77 102h71l-115 -148h-66zM336 -10q-132 0 -201.5 63t-69.5 183v408h82v-409q0 -88 49.5 -131.5t139.5 -43.5q89 0 138.5 43.5t49.5 131.5v409h82v-408q0 -120 -69.5 -183t-200.5 -63z" />
    <glyph glyph-name="uni01D4" unicode="&#x1d4;" horiz-adv-x="570" 
d="M249 522l-115 148h71l77 -102l77 102h71l-115 -148h-66zM237 -10q-85 0 -128.5 47t-43.5 137v300h82v-303q0 -59 29.5 -87t91.5 -28q44 0 83 16t67 44v358h82v-474h-74l-5 54q-34 -28 -81 -46t-103 -18z" />
    <glyph glyph-name="uni01D5" unicode="&#x1d5;" horiz-adv-x="671" 
d="M192 826v59h288v-59h-288zM208 705v75h78v-75h-78zM384 705v75h78v-75h-78zM336 -10q-132 0 -201.5 63t-69.5 183v408h82v-409q0 -88 49.5 -131.5t139.5 -43.5q89 0 138.5 43.5t49.5 131.5v409h82v-408q0 -120 -69.5 -183t-200.5 -63z" />
    <glyph glyph-name="uni01D6" unicode="&#x1d6;" horiz-adv-x="570" 
d="M143 679v59h288v-59h-288zM159 540v75h78v-75h-78zM335 540v75h78v-75h-78zM237 -10q-85 0 -128.5 47t-43.5 137v300h82v-303q0 -59 29.5 -87t91.5 -28q44 0 83 16t67 44v358h82v-474h-74l-5 54q-34 -28 -81 -46t-103 -18z" />
    <glyph glyph-name="uni01D7" unicode="&#x1d7;" horiz-adv-x="671" 
d="M304 771l62 125h65l-68 -125h-59zM199 688v75h78v-75h-78zM395 688v75h78v-75h-78zM336 -10q-132 0 -201.5 63t-69.5 183v408h82v-409q0 -88 49.5 -131.5t139.5 -43.5q89 0 138.5 43.5t49.5 131.5v409h82v-408q0 -120 -69.5 -183t-200.5 -63z" />
    <glyph glyph-name="uni01D8" unicode="&#x1d8;" horiz-adv-x="570" 
d="M251 605l62 125h65l-68 -125h-59zM146 522v75h78v-75h-78zM342 522v75h78v-75h-78zM237 -10q-85 0 -128.5 47t-43.5 137v300h82v-303q0 -59 29.5 -87t91.5 -28q44 0 83 16t67 44v358h82v-474h-74l-5 54q-34 -28 -81 -46t-103 -18z" />
    <glyph glyph-name="uni01D9" unicode="&#x1d9;" horiz-adv-x="671" 
d="M302 771l-111 118h70l74 -83l75 83h69l-111 -118h-66zM194 688v75h78v-75h-78zM390 688v75h78v-75h-78zM336 -10q-132 0 -201.5 63t-69.5 183v408h82v-409q0 -88 49.5 -131.5t139.5 -43.5q89 0 138.5 43.5t49.5 131.5v409h82v-408q0 -120 -69.5 -183t-200.5 -63z" />
    <glyph glyph-name="uni01DA" unicode="&#x1da;" horiz-adv-x="570" 
d="M251 605l-111 118h70l74 -83l75 83h69l-111 -118h-66zM143 522v75h78v-75h-78zM339 522v75h78v-75h-78zM237 -10q-85 0 -128.5 47t-43.5 137v300h82v-303q0 -59 29.5 -87t91.5 -28q44 0 83 16t67 44v358h82v-474h-74l-5 54q-34 -28 -81 -46t-103 -18z" />
    <glyph glyph-name="uni01DB" unicode="&#x1db;" horiz-adv-x="671" 
d="M308 771l-68 125h65l62 -125h-59zM198 688v75h78v-75h-78zM394 688v75h78v-75h-78zM336 -10q-132 0 -201.5 63t-69.5 183v408h82v-409q0 -88 49.5 -131.5t139.5 -43.5q89 0 138.5 43.5t49.5 131.5v409h82v-408q0 -120 -69.5 -183t-200.5 -63z" />
    <glyph glyph-name="uni01DC" unicode="&#x1dc;" horiz-adv-x="570" 
d="M256 605l-68 125h65l62 -125h-59zM146 522v75h78v-75h-78zM342 522v75h78v-75h-78zM237 -10q-85 0 -128.5 47t-43.5 137v300h82v-303q0 -59 29.5 -87t91.5 -28q44 0 83 16t67 44v358h82v-474h-74l-5 54q-34 -28 -81 -46t-103 -18z" />
    <glyph glyph-name="Gcaron" unicode="&#x1e6;" horiz-adv-x="639" 
d="M317 687l-115 148h71l77 -102l77 102h71l-115 -148h-66zM359 -10q-104 0 -172.5 39.5t-102.5 111t-34 167.5q0 105 32 183t100 120.5t176 42.5q56 0 101.5 -8t85.5 -22v-72q-40 15 -85 23.5t-95 8.5q-87 0 -138 -33t-73 -95t-22 -148q0 -119 55 -183.5t177 -64.5
q43 0 83 7t71 19v205h-172v56h243v-306q-29 -19 -84.5 -35t-145.5 -16z" />
    <glyph glyph-name="gcaron" unicode="&#x1e7;" horiz-adv-x="547" 
d="M248 522l-115 148h71l77 -102l77 102h71l-115 -148h-66zM254 -176q-53 0 -103.5 6t-86.5 19v68q40 -13 90 -20t96 -7q75 0 110 9t35 46q0 26 -18.5 37t-65.5 11h-126q-131 0 -131 88q0 29 18.5 55.5t55.5 37.5q-40 20 -59 55.5t-19 84.5q0 89 51.5 129.5t157.5 40.5
q22 0 45.5 -3.5t36.5 -6.5h171l-3 -56h-86q23 -19 33 -45.5t10 -58.5q0 -79 -46 -122.5t-141 -43.5q-16 0 -28.5 1.5t-29.5 3.5q-31 -1 -58 -17.5t-27 -42.5q0 -17 13.5 -25t49.5 -8h131q71 0 109 -28.5t38 -83.5q0 -70 -58 -97t-165 -27zM259 210q71 0 98 23t27 81
t-28.5 84t-96.5 26q-67 0 -97 -25t-30 -85q0 -55 28.5 -79.5t98.5 -24.5z" />
    <glyph glyph-name="Aringacute" unicode="&#x1fa;" horiz-adv-x="685" 
d="M291 852l71 168h74l-79 -168h-66zM50 0l237 622q-26 14 -40.5 38.5t-14.5 55.5q0 45 30.5 76.5t78.5 31.5q50 0 80.5 -31.5t30.5 -76.5q0 -30 -14 -54.5t-39 -38.5l236 -623h-84l-68 177h-280l-68 -177h-85zM341 655q28 0 45 18t17 43q0 26 -17 43.5t-45 17.5
q-26 0 -43.5 -17.5t-17.5 -43.5q0 -25 17.5 -43t43.5 -18zM217 242h251l-126 331z" />
    <glyph glyph-name="aringacute" unicode="&#x1fb;" horiz-adv-x="541" 
d="M239 783l71 134h74l-79 -134h-66zM275 519q-48 0 -78.5 31t-30.5 76t30.5 76.5t78.5 31.5q50 0 80.5 -31.5t30.5 -76.5t-30.5 -76t-80.5 -31zM275 565q28 0 45 18t17 43q0 26 -17 43.5t-45 17.5q-26 0 -43.5 -17.5t-17.5 -43.5q0 -25 17.5 -43t43.5 -18zM217 -10
q-45 0 -83 16t-61 47.5t-23 79.5q0 65 43 106.5t140 41.5h165v29q0 39 -10.5 62t-39.5 33t-85 10q-43 0 -83 -7t-75 -19v68q32 12 75.5 19.5t93.5 7.5q101 0 151.5 -41t50.5 -133v-310h-69l-6 54q-31 -32 -75 -48t-109 -16zM238 57q52 0 92 18.5t68 50.5v92h-163
q-56 0 -80 -21t-24 -64t29 -59.5t78 -16.5z" />
    <glyph glyph-name="AEacute" unicode="&#x1fc;" horiz-adv-x="840" 
d="M432 688l71 168h74l-79 -168h-66zM50 0l245 644h495v-65h-299v-225h263v-64h-263v-226h299v-64h-381v178h-203l-68 -178h-88zM231 242h178v337h-51z" />
    <glyph glyph-name="aeacute" unicode="&#x1fd;" horiz-adv-x="881" 
d="M402 522l71 168h74l-79 -168h-66zM217 -10q-45 0 -83 16t-61 47.5t-23 79.5q0 65 43 106.5t140 41.5h165v29q0 39 -10.5 62t-39.5 33t-85 10q-43 0 -83 -7t-75 -19v68q32 12 75.5 19.5t93.5 7.5q128 0 175 -73q28 33 71.5 53t104.5 20q70 0 115.5 -25.5t68 -70
t22.5 -100.5v-89h-351q4 -54 23.5 -85t59 -44.5t104.5 -13.5q73 0 134 25v-64q-31 -13 -69.5 -20t-80.5 -7q-76 0 -126.5 22t-81.5 68q-19 -22 -47 -42.5t-71.5 -34t-107.5 -13.5zM480 258h278v39q0 58 -30.5 89.5t-100.5 31.5q-85 0 -116 -40t-31 -120zM238 57
q58 0 95 18.5t65 50.5v92h-163q-56 0 -80 -21t-24 -64t29 -59.5t78 -16.5z" />
    <glyph glyph-name="Oslashacute" unicode="&#x1fe;" horiz-adv-x="694" 
d="M301 688l71 168h74l-79 -168h-66zM169 -53l26 70q-145 65 -145 305q0 173 73 252.5t224 79.5q21 0 41 -2t38 -5l17 46h72l-24 -64q77 -31 115 -106.5t38 -200.5q0 -173 -72.5 -252.5t-224.5 -79.5q-24 0 -46 2t-42 6l-18 -51h-72zM221 88l180 492q-13 2 -26.5 3t-27.5 1
q-73 0 -120.5 -25t-71 -82.5t-23.5 -154.5q0 -94 22 -151t67 -83zM347 60q73 0 120.5 25t71 82.5t23.5 154.5q0 98 -24 155.5t-72 82.5l-182 -495q14 -2 30 -3.5t33 -1.5z" />
    <glyph glyph-name="oslashacute" unicode="&#x1ff;" horiz-adv-x="574" 
d="M240 522l71 168h74l-79 -168h-66zM146 -54l23 64q-61 26 -90 83t-29 144q0 119 57 183t180 64q14 0 27.5 -1t26.5 -3l18 48h72l-24 -66q60 -26 88.5 -83t28.5 -142q0 -120 -56 -183.5t-181 -63.5q-28 0 -52 3l-17 -47h-72zM195 79l122 333q-7 1 -14.5 1.5t-15.5 0.5
q-84 0 -119.5 -42.5t-35.5 -134.5q0 -61 14.5 -99.5t48.5 -58.5zM287 60q85 0 120 42.5t35 134.5q0 59 -14.5 97.5t-46.5 57.5l-121 -331q7 -1 13.5 -1h13.5z" />
    <glyph glyph-name="uni0218" unicode="&#x218;" horiz-adv-x="556" 
d="M259 -10q-120 0 -194 30v73q42 -16 89.5 -24.5t97.5 -8.5q86 0 129 23.5t43 84.5q0 38 -17.5 60.5t-57.5 38t-107 31.5q-106 26 -149 67.5t-43 111.5q0 82 59 129.5t180 47.5q56 0 104 -8t74 -17v-72q-36 13 -78 20t-87 7q-82 0 -126 -24t-44 -83q0 -33 15.5 -53.5
t52.5 -35t103 -30.5q79 -19 123 -45.5t62 -62.5t18 -82q0 -85 -62 -131.5t-185 -46.5zM205 -218l27 166h75l-39 -166h-63z" />
    <glyph glyph-name="uni0219" unicode="&#x219;" horiz-adv-x="457" 
d="M219 -10q-46 0 -87.5 6t-69.5 16v72q34 -12 71.5 -18t74.5 -6q63 0 90 13.5t27 50.5q0 27 -14.5 41t-44 25t-75.5 26q-41 14 -73 29t-50 40.5t-18 68.5q0 63 44 96.5t142 33.5q38 0 73 -5.5t61 -13.5v-72q-63 21 -121 21q-62 0 -89.5 -12.5t-27.5 -46.5q0 -23 12.5 -36.5
t39 -23t68.5 -23.5q55 -17 89 -35t50 -44t16 -68q0 -70 -49 -102.5t-139 -32.5zM161 -218l27 166h75l-39 -166h-63z" />
    <glyph glyph-name="uni021A" unicode="&#x21a;" horiz-adv-x="570" 
d="M244 0v579h-214v65h510v-65h-214v-579h-82zM222 -219l28 177h74l-42 -177h-60z" />
    <glyph glyph-name="uni021B" unicode="&#x21b;" horiz-adv-x="358" 
d="M243 -10q-70 0 -105.5 37.5t-35.5 104.5v277h-72v65h72v117l82 25v-142h131l-5 -65h-126v-273q0 -43 19.5 -61.5t67.5 -18.5q26 0 57 10v-62q-37 -14 -85 -14zM170 -219l28 177h74l-42 -177h-60z" />
    <glyph glyph-name="uni0237" unicode="&#x237;" horiz-adv-x="294" 
d="M79 -234q-50 0 -89 14v65q17 -5 32.5 -7.5t28.5 -2.5q54 0 72.5 18t18.5 60v496h-73l8 65h147v-568q0 -64 -37 -102t-108 -38z" />
    <glyph glyph-name="uni0251" unicode="&#x251;" horiz-adv-x="575" 
d="M264 -10q-100 0 -157 56t-57 185q0 128 58 190.5t158 62.5q92 0 157 -45v35h82v-474h-70l-6 50q-33 -31 -72.5 -45.5t-92.5 -14.5zM285 56q41 0 76 14t62 43v258q-25 22 -58.5 34.5t-76.5 12.5q-79 0 -117.5 -45t-38.5 -142q0 -93 35 -134t118 -41z" />
    <glyph glyph-name="uni0259" unicode="&#x259;" horiz-adv-x="533" 
d="M256 -10q-70 0 -115.5 25.5t-68 70t-22.5 100.5v89h351q-4 54 -23.5 85.5t-59 44.5t-104.5 13q-73 0 -134 -25v64q31 14 69.5 20.5t80.5 6.5q127 0 190 -60.5t63 -188.5q0 -114 -54.5 -179.5t-172.5 -65.5zM254 56q85 0 116 40t31 120h-278v-39q0 -58 30.5 -89.5
t100.5 -31.5z" />
    <glyph glyph-name="uni02BB" unicode="&#x2bb;" horiz-adv-x="224" 
d="M50 471l62 183h62l-49 -183h-75z" />
    <glyph glyph-name="uni02BC" unicode="&#x2bc;" horiz-adv-x="224" 
d="M50 471l50 183h74l-62 -183h-62z" />
    <glyph glyph-name="uni02BE" unicode="&#x2be;" 
d="M-374 474v50q42 0 63.5 23.5t21.5 63.5t-21.5 63t-63.5 23v50q70 0 105.5 -38t35.5 -98t-35.5 -98.5t-105.5 -38.5z" />
    <glyph glyph-name="uni02BF" unicode="&#x2bf;" 
d="M-233 474q-70 0 -105.5 38.5t-35.5 98.5t35.5 98t105.5 38v-50q-42 0 -63.5 -23t-21.5 -63t21.5 -63.5t63.5 -23.5v-50z" />
    <glyph glyph-name="circumflex" unicode="&#x2c6;" horiz-adv-x="396" 
d="M50 537l115 148h66l115 -148h-71l-77 102l-77 -102h-71z" />
    <glyph glyph-name="caron" unicode="&#x2c7;" horiz-adv-x="396" 
d="M165 537l-115 148h71l77 -102l77 102h71l-115 -148h-66z" />
    <glyph glyph-name="uni02C8" unicode="&#x2c8;" 
d="M-41 485v170h58v-170h-58z" />
    <glyph glyph-name="uni02C9" unicode="&#x2c9;" 
d="M78 565v59h288v-59h-288z" />
    <glyph glyph-name="uni02CA" unicode="&#x2ca;" 
d="M-82 522l71 168h74l-79 -168h-66z" />
    <glyph glyph-name="uni02CB" unicode="&#x2cb;" 
d="M-8 522l-79 168h74l71 -168h-66z" />
    <glyph glyph-name="uni02CC" unicode="&#x2cc;" 
d="M-41 -211v170h58v-170h-58z" />
    <glyph glyph-name="breve" unicode="&#x2d8;" horiz-adv-x="354" 
d="M176 540q-62 0 -94 35t-32 91h58q0 -38 18.5 -56t49.5 -18q33 0 51.5 18t18.5 56h58q0 -56 -32.5 -91t-95.5 -35z" />
    <glyph glyph-name="dotaccent" unicode="&#x2d9;" horiz-adv-x="180" 
d="M50 560v77h80v-77h-80z" />
    <glyph glyph-name="ring" unicode="&#x2da;" horiz-adv-x="320" 
d="M159 525q-48 0 -78.5 31t-30.5 76t30.5 76.5t78.5 31.5q50 0 80.5 -31.5t30.5 -76.5t-30.5 -76t-80.5 -31zM159 571q28 0 45 18t17 43q0 26 -17 43.5t-45 17.5q-26 0 -43.5 -17.5t-17.5 -43.5q0 -25 17.5 -43t43.5 -18z" />
    <glyph glyph-name="ogonek" unicode="&#x2db;" horiz-adv-x="267" 
d="M149 -220q-40 0 -69.5 20.5t-29.5 67.5q0 39 21 74.5t54 57.5h64q-72 -54 -72 -120q0 -25 12.5 -34t37.5 -9q13 0 27 3t23 8v-56q-12 -6 -31 -9t-37 -3z" />
    <glyph glyph-name="tilde" unicode="&#x2dc;" horiz-adv-x="404" 
d="M277 573q-26 0 -51 9.5t-48 19t-45 9.5q-24 0 -45 -7.5t-38 -27.5v63q12 14 36 22t47 8q28 0 51.5 -9.5t46 -19t46.5 -9.5q51 0 77 36v-64q-10 -13 -30.5 -21.5t-46.5 -8.5z" />
    <glyph glyph-name="hungarumlaut" unicode="&#x2dd;" horiz-adv-x="455" 
d="M256 537l71 152h78l-81 -152h-68zM50 537l71 152h78l-81 -152h-68z" />
    <glyph glyph-name="gravecomb" unicode="&#x300;" 
d="M-362 522l-79 168h74l71 -168h-66z" />
    <glyph glyph-name="acutecomb" unicode="&#x301;" 
d="M-374 522l71 168h74l-79 -168h-66z" />
    <glyph glyph-name="uni0302" unicode="&#x302;" 
d="M-171 537l115 148h66l115 -148h-71l-77 102l-77 -102h-71z" />
    <glyph glyph-name="tildecomb" unicode="&#x303;" 
d="M-243 573q-26 0 -51 9.5t-48 19t-45 9.5q-24 0 -45 -7.5t-38 -27.5v63q12 14 36 22t47 8q28 0 51.5 -9.5t46 -19t46.5 -9.5q51 0 77 36v-64q-10 -13 -30.5 -21.5t-46.5 -8.5z" />
    <glyph glyph-name="uni0304" unicode="&#x304;" 
d="M-164 565v59h288v-59h-288z" />
    <glyph glyph-name="uni0306" unicode="&#x306;" 
d="M-12 541q-62 0 -94 35t-32 91h58q0 -38 18.5 -56t49.5 -18q33 0 51.5 18t18.5 56h58q0 -56 -32.5 -91t-95.5 -35z" />
    <glyph glyph-name="uni0307" unicode="&#x307;" 
d="M-51 560v77h80v-77h-80z" />
    <glyph glyph-name="uni0308" unicode="&#x308;" 
d="M40 561v75h78v-75h-78zM-136 561v75h78v-75h-78z" />
    <glyph glyph-name="hookabovecomb" unicode="&#x309;" 
d="M-351 510v83q59 3 76 14.5t17 37.5q0 25 -19 35t-59 10q-16 0 -34.5 -3.5t-31.5 -8.5v51q15 6 39 9.5t46 3.5q59 0 90 -24t31 -67q0 -40 -19.5 -63t-69.5 -30v-48h-66z" />
    <glyph glyph-name="uni030A" unicode="&#x30a;" 
d="M-12 525q-48 0 -78.5 31t-30.5 76t30.5 76.5t78.5 31.5q50 0 80.5 -31.5t30.5 -76.5t-30.5 -76t-80.5 -31zM-12 571q28 0 45 18t17 43q0 26 -17 43.5t-45 17.5q-26 0 -43.5 -17.5t-17.5 -43.5q0 -25 17.5 -43t43.5 -18z" />
    <glyph glyph-name="uni030B" unicode="&#x30b;" 
d="M2 537l71 152h78l-81 -152h-68zM-204 537l71 152h78l-81 -152h-68z" />
    <glyph glyph-name="uni030C" unicode="&#x30c;" 
d="M-56 537l-115 148h71l77 -102l77 102h71l-115 -148h-66z" />
    <glyph glyph-name="uni031B" unicode="&#x31b;" 
d="M-105 527v66q42 0 64.5 8.5t30.5 32t8 68.5h71q0 -68 -19 -106t-57.5 -53t-97.5 -16z" />
    <glyph glyph-name="dotbelowcomb" unicode="&#x323;" 
d="M-351 -164v77h80v-77h-80z" />
    <glyph glyph-name="uni0324" unicode="&#x324;" 
d="M48 -162v75h78v-75h-78zM-128 -162v75h78v-75h-78z" />
    <glyph glyph-name="uni0326" unicode="&#x326;" 
d="M50 -214l28 177h74l-42 -177h-60z" />
    <glyph glyph-name="uni0327" unicode="&#x327;" 
d="M-29 -240q-16 0 -37.5 2.5t-32.5 5.5v50q29 -8 63 -8q47 0 68.5 11t21.5 42q0 29 -21 37.5t-64 8.5h-37l29 91h58l-16 -48q55 0 83 -23.5t28 -66.5q0 -49 -34.5 -75.5t-108.5 -26.5z" />
    <glyph glyph-name="uni0328" unicode="&#x328;" 
d="M4 -220q-40 0 -69.5 20.5t-29.5 67.5q0 39 21 74.5t54 57.5h64q-72 -54 -72 -120q0 -25 12.5 -34t37.5 -9q13 0 27 3t23 8v-56q-12 -6 -31 -9t-37 -3z" />
    <glyph glyph-name="uni032E" unicode="&#x32e;" 
d="M-12 -196q-62 0 -94 35t-32 91h58q0 -38 18.5 -56t49.5 -18q33 0 51.5 18t18.5 56h58q0 -56 -32.5 -91t-95.5 -35z" />
    <glyph glyph-name="uni0331" unicode="&#x331;" 
d="M-164 -130v59h288v-59h-288z" />
    <glyph glyph-name="uni0394" unicode="&#x394;" horiz-adv-x="654" 
d="M50 0v47l235 597h82l237 -598v-46h-554zM130 64h391l-195 497z" />
    <glyph glyph-name="uni03A9" unicode="&#x3a9;" horiz-adv-x="769" 
d="M57 0v64h159q-73 46 -119.5 120.5t-46.5 178.5q0 95 40 170t115 118.5t180 43.5t179.5 -43.5t114.5 -118.5t40 -170q0 -104 -45.5 -179t-119.5 -120h158v-64h-263v65q95 52 141.5 127.5t46.5 170.5q0 78 -31.5 137t-88 92t-132.5 33q-75 0 -132 -33t-89 -92t-32 -137
q0 -95 47 -170.5t142 -127.5v-65h-264z" />
    <glyph glyph-name="uni03BC" unicode="&#x3bc;" horiz-adv-x="575" 
d="M70 -143v617h82v-303q0 -59 29.5 -87t91.5 -28q44 0 83 16t67 44v358h82v-474h-74l-5 54q-34 -28 -81 -46t-103 -18q-27 0 -50 6t-40 16v-155h-82z" />
    <glyph glyph-name="pi" unicode="&#x3c0;" horiz-adv-x="668" 
d="M542 -10q-66 0 -101 40t-35 107v273h-216v-410h-82v410h-68v64h516v-64h-68v-274q0 -43 18.5 -60t64.5 -17q26 0 57 10v-65q-19 -7 -39.5 -10.5t-46.5 -3.5z" />
    <glyph glyph-name="uni0E01" unicode="&#xe01;" horiz-adv-x="608" 
d="M82 0v219q0 41 19 72.5t62 44.5l-113 26v96q38 35 101.5 63.5t149.5 28.5q118 0 177.5 -49.5t59.5 -156.5v-344h-82v347q0 75 -35 104t-120 29q-56 0 -104.5 -15.5t-74.5 -41.5v-21l117 -28v-62q-38 -10 -56.5 -31.5t-18.5 -63.5v-217h-82z" />
    <glyph glyph-name="uni0E02" unicode="&#xe02;" horiz-adv-x="571" 
d="M280 -10q-106 0 -162.5 50.5t-56.5 144.5v73q0 30 14 57t33 51t33 45t14 39q0 17 -7.5 21.5t-25.5 4.5h-72l7 64h111q69 0 69 -68q0 -34 -14 -61t-33 -52t-33 -50t-14 -54v-79q0 -62 37 -89t100 -27q64 0 101.5 27t37.5 91v362h82v-354q0 -94 -58.5 -145t-162.5 -51z" />
    <glyph glyph-name="uni0E03" unicode="&#xe03;" horiz-adv-x="563" 
d="M277 -10q-106 0 -160.5 48.5t-54.5 142.5v58q0 30 17.5 60t40.5 58t40.5 52.5t17.5 43.5q0 25 -24 25q-11 0 -22 -5.5t-19 -13.5v-39h-63v120h63v-28q12 11 29.5 19.5t42.5 8.5q33 0 52.5 -18t19.5 -53q0 -32 -17 -61t-39.5 -56.5t-39.5 -56t-17 -58.5v-61
q0 -62 34.5 -89t98.5 -27t99 27t35 91v362h82v-354q0 -94 -56 -145t-160 -51z" />
    <glyph glyph-name="uni0E04" unicode="&#xe04;" horiz-adv-x="606" 
d="M70 0v350q0 96 56.5 148t177.5 52t176.5 -52t55.5 -148v-350h-82v359q0 65 -38.5 93t-111.5 28q-75 0 -113.5 -28t-38.5 -93v-125q47 41 116 41h66l4 -67h-72q-68 0 -114 -39v-169h-82z" />
    <glyph glyph-name="uni0E05" unicode="&#xe05;" horiz-adv-x="606" 
d="M70 0v404q0 76 34 111t92 35q32 0 60 -12.5t48 -40.5q20 28 51.5 40.5t62.5 12.5q68 0 93 -35t25 -112v-403h-82v414q0 29 -9 47.5t-40 18.5q-24 0 -43 -12t-34 -35h-50q-11 22 -25.5 34.5t-36.5 12.5q-34 0 -49 -18.5t-15 -48.5v-179q47 41 116 41h66l4 -67h-72
q-68 0 -114 -39v-169h-82z" />
    <glyph glyph-name="uni0E06" unicode="&#xe06;" horiz-adv-x="589" 
d="M337 -10q-66 0 -112 20.5t-84 54.5l-5 -65h-74v226q0 30 17.5 62t40.5 62.5t40.5 57t17.5 45.5q0 25 -24 25q-11 0 -22 -5.5t-19 -13.5v-39h-63v120h63v-28q12 11 29.5 19.5t42.5 8.5q33 0 52.5 -18t19.5 -53q0 -32 -17 -63t-39.5 -61t-39.5 -60.5t-17 -60.5v-90
q31 -32 72.5 -53t93.5 -21q65 0 96 29t31 96v355h82v-356q0 -94 -48 -144t-134 -50z" />
    <glyph glyph-name="uni0E07" unicode="&#xe07;" horiz-adv-x="551" 
d="M265 -10q-19 0 -44.5 2t-43.5 9l-152 370h80l128 -311q95 -7 140.5 49t45.5 179q0 70 -13 110.5t-43.5 57.5t-85.5 17h-35v67h44q115 0 165 -61.5t50 -189.5q0 -106 -31.5 -172t-84.5 -96.5t-120 -30.5z" />
    <glyph glyph-name="uni0E08" unicode="&#xe08;" horiz-adv-x="569" 
d="M274 -10q-17 0 -39.5 3t-36.5 8l-84 224h-64l4 67h113l87 -232q47 -4 89 15.5t68 68.5t26 132q0 75 -20 120t-65 64.5t-122 19.5q-40 0 -84.5 -6t-85.5 -20v68q38 13 87.5 20.5t104.5 7.5q139 0 203 -71t64 -203q0 -94 -34 -157.5t-89.5 -96t-121.5 -32.5z" />
    <glyph glyph-name="uni0E09" unicode="&#xe09;" horiz-adv-x="575" 
d="M229 -10q-172 0 -172 188v122h82v-122q0 -43 10 -69t35.5 -37.5t73.5 -11.5q50 0 92 20t73 54v208q0 53 -16.5 83t-56 42.5t-107.5 12.5q-42 0 -97 -8t-96 -22v68q41 14 99 23t115 9q124 0 182.5 -51t58.5 -158v-341h-74l-5 65q-36 -33 -82.5 -54t-114.5 -21z" />
    <glyph glyph-name="uni0E0A" unicode="&#xe0a;" horiz-adv-x="571" 
d="M280 -10q-106 0 -162.5 50.5t-56.5 144.5v73q0 30 14 57t33 51t33 45t14 39q0 17 -7.5 21.5t-25.5 4.5h-72l7 64h111q69 0 69 -68q0 -34 -14 -61t-33 -52t-33 -50t-14 -54v-79q0 -62 37 -89t100 -27q64 0 101.5 27t37.5 91v69q0 56 -18 76.5t-66 20.5h-28l4 65h22
q51 0 68.5 24t17.5 73v44h82v-43q0 -49 -14 -81.5t-60 -48.5q49 -18 61.5 -51t12.5 -81v-59q0 -94 -58.5 -145t-162.5 -51z" />
    <glyph glyph-name="uni0E0B" unicode="&#xe0b;" horiz-adv-x="572" 
d="M281 -10q-106 0 -162.5 50.5t-56.5 144.5v54q0 30 17.5 60t40.5 58t40.5 52.5t17.5 43.5q0 25 -24 25q-11 0 -22 -5.5t-19 -13.5v-39h-63v120h63v-28q12 11 29.5 19.5t42.5 8.5q33 0 52.5 -18t19.5 -53q0 -32 -17 -61t-39.5 -56.5t-39.5 -56t-17 -58.5v-61q0 -62 37 -89
t100 -27q64 0 101.5 27t37.5 91v69q0 56 -18 76.5t-66 20.5h-28l4 65h22q51 0 68.5 24t17.5 73v44h82v-43q0 -49 -14 -81.5t-60 -48.5q49 -18 61.5 -51t12.5 -81v-59q0 -94 -58.5 -145t-162.5 -51z" />
    <glyph glyph-name="uni0E0C" unicode="&#xe0c;" horiz-adv-x="958" 
d="M712 -10q-64 0 -108 20.5t-82 54.5l-5 -65h-73v347q0 75 -33 104t-116 29q-54 0 -100.5 -15.5t-72.5 -41.5v-21l117 -28v-62q-38 -10 -56.5 -31.5t-18.5 -63.5v-101q0 -49 47 -49h57v-67h-94q-43 0 -67.5 26.5t-24.5 69.5v123q0 41 19 72.5t62 44.5l-113 26v96
q38 35 99.5 63.5t145.5 28.5q116 0 173 -49.5t57 -156.5v-210q31 -32 71 -53t89 -21q62 0 91.5 29t29.5 96v355h82v-356q0 -94 -46 -144t-130 -50z" />
    <glyph glyph-name="uni0E0D" unicode="&#xe0d;" horiz-adv-x="967" 
d="M671 -50q-52 0 -104.5 10t-91.5 32v71q41 -22 96.5 -32.5t99.5 -10.5q78 0 114 18.5t36 47.5q0 11 -2.5 20.5t-9.5 18.5q-27 -16 -61 -25.5t-78 -9.5q-226 0 -226 214v43q0 75 -33 104t-116 29q-54 0 -100.5 -15.5t-72.5 -41.5v-21l117 -28v-62q-38 -10 -56.5 -31.5
t-18.5 -63.5v-101q0 -49 47 -49h57v-67h-94q-43 0 -67.5 26.5t-24.5 69.5v123q0 41 19 72.5t62 44.5l-113 26v96q38 35 99.5 63.5t145.5 28.5q116 0 173 -49.5t57 -156.5v-46q0 -73 35 -105.5t110 -32.5t110 32.5t35 105.5v242h82v-236q0 -42 -9 -73t-26 -56q35 -33 35 -89
q0 -136 -226 -136z" />
    <glyph glyph-name="uni0E0E" unicode="&#xe0e;" horiz-adv-x="642" 
d="M173 -196v70q38 19 79.5 28.5t89.5 9.5q46 0 84 -9t64 -24v468q0 75 -35 104t-120 29q-56 0 -104.5 -15.5t-74.5 -41.5v-21l123 -28v-62q-37 -11 -50.5 -31t-13.5 -64v-107q0 -110 -103 -110h-62v67h40q43 0 43 48v104q0 41 14 72t56 45l-119 26v96q38 35 101.5 63.5
t149.5 28.5q118 0 177.5 -49.5t59.5 -156.5v-538h-81q-34 18 -70 27t-84 9q-86 0 -164 -38z" />
    <glyph glyph-name="uni0E0F" unicode="&#xe0f;" horiz-adv-x="642" 
d="M437 -195q-35 0 -63.5 13t-42.5 32q-10 -19 -32.5 -31.5t-58.5 -12.5h-90l5 72h69q29 0 46.5 9.5t30.5 33.5h56q11 -22 27.5 -34t44.5 -12q35 0 48 17t13 54v401q0 75 -35 104t-120 29q-56 0 -104.5 -15.5t-74.5 -41.5v-21l123 -28v-62q-37 -11 -50.5 -31t-13.5 -64v-107
q0 -110 -103 -110h-62v67h40q43 0 43 48v104q0 41 14 72t56 45l-119 26v96q38 35 101.5 63.5t149.5 28.5q118 0 177.5 -49.5t59.5 -156.5v-408q0 -64 -36 -97.5t-99 -33.5z" />
    <glyph glyph-name="uni0E10" unicode="&#xe10;" horiz-adv-x="612" 
d="M274 -10q-17 0 -39.5 3t-36.5 8l-84 224h-64l4 67h113l87 -232q47 -4 89 15.5t68 68.5t26 132q0 75 -20 120t-65 64.5t-122 19.5q-40 0 -84.5 -6t-85.5 -20v68q38 13 87.5 20.5t104.5 7.5q26 0 49 -2.5t43 -7.5h218l-4 -67h-102q35 -37 49 -85.5t14 -111.5
q0 -94 -34 -157.5t-89.5 -96t-121.5 -32.5zM365 -195q-35 0 -63.5 13t-42.5 32q-10 -19 -32.5 -31.5t-58.5 -12.5h-90l5 72h69q29 0 46.5 9.5t30.5 33.5h56q11 -22 27.5 -34t44.5 -12q35 0 48 16t13 45v24h82v-34q0 -56 -36 -88.5t-99 -32.5z" />
    <glyph glyph-name="uni0E11" unicode="&#xe11;" horiz-adv-x="595" 
d="M89 0v230q0 30 13.5 60.5t31.5 59.5t31.5 55t13.5 47q0 26 -24 26q-12 0 -23 -5.5t-19 -13.5v-39h-63v120h63v-28q12 11 29.5 19.5t42.5 8.5q41 0 57 -30q25 18 56.5 29t67.5 11q86 0 122.5 -46t36.5 -140v-364h-82v365q0 62 -19.5 88.5t-79.5 26.5q-23 0 -49 -9.5
t-43 -25.5q0 -27 -12 -53t-28.5 -52t-28.5 -54.5t-12 -60.5v-225h-82z" />
    <glyph glyph-name="uni0E12" unicode="&#xe12;" horiz-adv-x="989" 
d="M266 -10q-62 0 -111 29t-77 89.5t-28 156.5q0 137 43 211t121 74q40 0 64 -14t43 -39q22 25 53.5 39t65.5 14q59 0 87.5 -34.5t28.5 -99.5v-282q31 -32 71 -53t89 -21q62 0 91.5 29t29.5 96v355h82v-356q0 -94 -46 -144t-130 -50q-64 0 -108 20.5t-82 54.5l-5 -65h-73
v405q0 42 -11.5 58.5t-46.5 16.5q-22 0 -40 -10.5t-29 -36.5h-55q-14 26 -28 36.5t-41 10.5q-54 0 -73 -58.5t-19 -156.5q0 -114 37.5 -159.5t110.5 -45.5q19 0 37.5 2t31.5 6v-68q-33 -10 -83 -10z" />
    <glyph glyph-name="uni0E13" unicode="&#xe13;" horiz-adv-x="958" 
d="M619 -10q-84 0 -129.5 50t-45.5 144v163q0 75 -33 104t-116 29q-54 0 -100.5 -15.5t-72.5 -41.5v-21l117 -28v-62q-38 -10 -56.5 -31.5t-18.5 -63.5v-101q0 -49 47 -49h57v-67h-94q-43 0 -67.5 26.5t-24.5 69.5v123q0 41 19 72.5t62 44.5l-113 26v96q38 35 99.5 63.5
t145.5 28.5q116 0 173 -49.5t57 -156.5v-159q0 -67 29.5 -96t91.5 -29q50 0 89.5 21t70.5 53v406h82v-540h-74l-5 65q-37 -34 -81.5 -54.5t-108.5 -20.5z" />
    <glyph glyph-name="uni0E14" unicode="&#xe14;" horiz-adv-x="637" 
d="M266 -10q-62 0 -111 29t-77 89.5t-28 156.5q0 132 66 208.5t204 76.5q88 0 142.5 -30.5t79.5 -79.5t25 -105v-335h-82v334q0 42 -16 75t-52.5 52t-98.5 19q-100 0 -143 -56t-43 -159q0 -114 37.5 -159.5t110.5 -45.5q19 0 37.5 2t31.5 6v-68q-33 -10 -83 -10z" />
    <glyph glyph-name="uni0E15" unicode="&#xe15;" horiz-adv-x="637" 
d="M266 -10q-62 0 -111 29t-77 89.5t-28 156.5q0 137 43.5 211t124.5 74q40 0 65 -14t44 -39q22 25 54.5 39t66.5 14q59 0 89 -34.5t30 -99.5v-416h-82v405q0 42 -12.5 58.5t-47.5 16.5q-22 0 -41 -10.5t-30 -36.5h-55q-14 26 -29 36.5t-42 10.5q-57 0 -76.5 -58.5
t-19.5 -156.5q0 -114 37.5 -159.5t110.5 -45.5q19 0 37.5 2t31.5 6v-68q-33 -10 -83 -10z" />
    <glyph glyph-name="uni0E16" unicode="&#xe16;" horiz-adv-x="608" 
d="M174 0q-43 0 -67.5 26.5t-24.5 69.5v123q0 41 19 72.5t62 44.5l-113 26v96q38 35 101.5 63.5t149.5 28.5q118 0 177.5 -49.5t59.5 -156.5v-344h-82v347q0 75 -35 104t-120 29q-56 0 -104.5 -15.5t-74.5 -41.5v-21l117 -28v-62q-38 -10 -56.5 -31.5t-18.5 -63.5v-101
q0 -49 47 -49h57v-67h-94z" />
    <glyph glyph-name="uni0E17" unicode="&#xe17;" horiz-adv-x="597" 
d="M70 0v540h74l5 -65q38 34 85.5 54.5t112.5 20.5q86 0 133 -50t47 -143v-357h-82v356q0 66 -31 95t-96 29q-52 0 -93.5 -21.5t-72.5 -53.5v-405h-82z" />
    <glyph glyph-name="uni0E18" unicode="&#xe18;" horiz-adv-x="531" 
d="M269 -10q-63 0 -117.5 11.5t-91.5 26.5v205h76v-152q57 -21 127 -21q66 0 101 20t35 75q0 44 -18 65.5t-55 33t-93 23.5q-45 10 -87 23.5t-69 40t-27 75.5q0 71 59 102.5t164 31.5q50 0 101 -7.5t80 -18.5v-72q-33 12 -79.5 20t-90.5 8q-42 0 -77.5 -4t-57 -17t-21.5 -41
q0 -30 22.5 -44t61.5 -22.5t90 -21.5q52 -13 92 -30.5t63.5 -50.5t23.5 -94q0 -85 -58 -125t-154 -40z" />
    <glyph glyph-name="uni0E19" unicode="&#xe19;" horiz-adv-x="597" 
d="M250 -10q-87 0 -133.5 50t-46.5 144v356h82v-355q0 -67 30 -96t95 -29q51 0 94 21t74 53v406h82v-540h-74l-5 65q-37 -34 -85 -54.5t-113 -20.5z" />
    <glyph glyph-name="uni0E1A" unicode="&#xe1a;" horiz-adv-x="614" 
d="M307 -10q-114 0 -175.5 54t-61.5 160v336h82v-342q0 -73 40 -105.5t115 -32.5t115 32.5t40 105.5v342h82v-336q0 -106 -61.5 -160t-175.5 -54z" />
    <glyph glyph-name="uni0E1B" unicode="&#xe1b;" horiz-adv-x="614" 
d="M307 -10q-114 0 -175.5 54t-61.5 160v336h82v-342q0 -73 40 -105.5t115 -32.5t115 32.5t40 105.5v502h82v-496q0 -106 -61.5 -160t-175.5 -54z" />
    <glyph glyph-name="uni0E1C" unicode="&#xe1c;" horiz-adv-x="642" 
d="M70 0v441q0 42 26 70.5t69 28.5h86l3 -68h-53q-27 0 -38.5 -12t-11.5 -41v-305l151 261h39l151 -261v426h80v-540h-84l-166 291l-168 -291h-84z" />
    <glyph glyph-name="uni0E1D" unicode="&#xe1d;" horiz-adv-x="642" 
d="M70 0v441q0 42 26 70.5t69 28.5h86l3 -68h-53q-27 0 -38.5 -12t-11.5 -41v-305l151 261h39l151 -261v586h80v-700h-84l-166 291l-168 -291h-84z" />
    <glyph glyph-name="uni0E1E" unicode="&#xe1e;" horiz-adv-x="721" 
d="M164 0l-124 540h84l89 -425l114 357v68h61l122 -425l88 425h83l-123 -540h-82l-111 380l-120 -380h-81z" />
    <glyph glyph-name="uni0E1F" unicode="&#xe1f;" horiz-adv-x="721" 
d="M164 0l-124 540h84l89 -425l114 357v68h61l122 -425l123 585h83l-158 -700h-82l-111 380l-120 -380h-81z" />
    <glyph glyph-name="uni0E20" unicode="&#xe20;" horiz-adv-x="642" 
d="M50 0v67h40q43 0 43 48v104q0 41 14 72t56 45l-119 26v96q38 35 101.5 63.5t149.5 28.5q118 0 177.5 -49.5t59.5 -156.5v-344h-82v347q0 75 -35 104t-120 29q-56 0 -104.5 -15.5t-74.5 -41.5v-21l123 -28v-62q-37 -11 -50.5 -31t-13.5 -64v-107q0 -110 -103 -110h-62z
" />
    <glyph glyph-name="uni0E21" unicode="&#xe21;" horiz-adv-x="597" 
d="M345 -10q-66 0 -112 20.5t-84 54.5l-5 -65h-74v540h82v-406q31 -32 72.5 -53t93.5 -21q65 0 96 29t31 96v355h82v-356q0 -94 -48 -144t-134 -50z" />
    <glyph glyph-name="uni0E22" unicode="&#xe22;" horiz-adv-x="591" 
d="M288 -10q-109 0 -173.5 39.5t-64.5 124.5q0 47 21.5 79.5t60.5 48.5q-34 11 -56.5 40t-22.5 77q0 76 45 113.5t115 37.5q27 0 47 -3t36 -8v-68q-13 5 -31 7t-37 2q-44 0 -68.5 -19.5t-24.5 -61.5q0 -44 29 -64.5t76 -20.5h57l5 -62h-65q-53 0 -79 -25.5t-26 -72.5
q0 -94 153 -94q77 0 115.5 29.5t38.5 94.5v356h82v-342q0 -101 -56 -154.5t-177 -53.5z" />
    <glyph glyph-name="uni0E23" unicode="&#xe23;" horiz-adv-x="505" 
d="M241 -10q-50 0 -97.5 6.5t-79.5 19.5v73q38 -15 81 -22t82 -7q73 0 109.5 14.5t36.5 63.5q0 35 -18.5 52.5t-52.5 29t-82 27.5q-44 15 -83 33.5t-63 47.5t-24 76q0 71 52.5 108.5t156.5 37.5q44 0 87 -7t72 -17v-72q-33 13 -71.5 19.5t-75.5 6.5q-68 0 -103.5 -14.5
t-35.5 -59.5q0 -29 18.5 -46.5t53 -30t83.5 -28.5t87 -35.5t59.5 -49t21.5 -77.5q0 -81 -59 -115t-155 -34z" />
    <glyph glyph-name="uni0E24" unicode="&#xe24;" horiz-adv-x="608" 
d="M456 -160v507q0 75 -35 104t-120 29q-56 0 -104.5 -15.5t-74.5 -41.5v-21l117 -28v-62q-38 -10 -56.5 -31.5t-18.5 -63.5v-101q0 -49 47 -49h57v-67h-94q-43 0 -67.5 26.5t-24.5 69.5v123q0 41 19 72.5t62 44.5l-113 26v96q38 35 101.5 63.5t149.5 28.5
q118 0 177.5 -49.5t59.5 -156.5v-504h-82z" />
    <glyph glyph-name="uni0E25" unicode="&#xe25;" horiz-adv-x="586" 
d="M230 -10q-51 0 -91.5 16.5t-64.5 52t-24 92.5q0 76 51 120.5t156 44.5h177v42q0 46 -13.5 72.5t-46.5 38t-92 11.5q-45 0 -88.5 -6t-84.5 -20v68q38 13 87.5 20.5t100.5 7.5q114 0 166.5 -47.5t52.5 -150.5v-352h-82v248h-172q-68 0 -100 -22.5t-32 -74.5q0 -51 29 -71
t93 -20q39 0 68 8v-68q-17 -4 -40 -7t-50 -3z" />
    <glyph glyph-name="uni0E26" unicode="&#xe26;" horiz-adv-x="642" 
d="M490 -160v507q0 75 -35 104t-120 29q-56 0 -104.5 -15.5t-74.5 -41.5v-21l123 -28v-62q-37 -11 -50.5 -31t-13.5 -64v-107q0 -110 -103 -110h-62v67h40q43 0 43 48v104q0 41 14 72t56 45l-119 26v96q38 35 101.5 63.5t149.5 28.5q118 0 177.5 -49.5t59.5 -156.5v-504h-82
z" />
    <glyph glyph-name="uni0E27" unicode="&#xe27;" horiz-adv-x="504" 
d="M201 -10q-86 0 -151 28v69q29 -12 63.5 -19.5t68.5 -7.5q74 0 115 21.5t58 67.5t17 121q0 112 -44 161t-149 49q-35 0 -67 -7t-62 -21v70q31 14 65.5 21t80.5 7q131 0 194.5 -71t63.5 -209q0 -134 -58 -207t-195 -73z" />
    <glyph glyph-name="uni0E28" unicode="&#xe28;" horiz-adv-x="626" 
d="M70 0v350q0 96 56.5 148t177.5 52q26 0 49 -2.5t43 -7.5h190l-4 -67h-83q20 -24 28.5 -54.5t8.5 -68.5v-350h-82v359q0 65 -38.5 93t-111.5 28q-75 0 -113.5 -28t-38.5 -93v-125q47 41 116 41h66l4 -67h-72q-68 0 -114 -39v-169h-82z" />
    <glyph glyph-name="uni0E29" unicode="&#xe29;" horiz-adv-x="631" 
d="M307 -10q-114 0 -175.5 54t-61.5 160v336h82v-342q0 -73 40 -105.5t115 -32.5t115 32.5t40 105.5v80h-143v67h143v195h82v-195h62l-7 -67h-55v-74q0 -106 -61.5 -160t-175.5 -54z" />
    <glyph glyph-name="uni0E2A" unicode="&#xe2a;" horiz-adv-x="591" 
d="M230 -10q-51 0 -91.5 16.5t-64.5 52t-24 92.5q0 76 51 120.5t156 44.5h177v42q0 46 -13.5 72.5t-46.5 38t-92 11.5q-45 0 -88.5 -6t-84.5 -20v68q38 13 87.5 20.5t100.5 7.5q26 0 49 -2.5t43 -7.5h172l-4 -67h-72q17 -23 24 -53t7 -68v-352h-82v248h-172
q-68 0 -100 -22.5t-32 -74.5q0 -51 29 -71t93 -20q39 0 68 8v-68q-17 -4 -40 -7t-50 -3z" />
    <glyph glyph-name="uni0E2B" unicode="&#xe2b;" horiz-adv-x="593" 
d="M70 0v540h82v-175h179q66 0 91 28t25 81v66h82v-65q0 -51 -19 -89t-67 -53q50 -16 65 -52t15 -84v-197h-82v187q0 64 -24.5 87.5t-90.5 23.5h-174v-298h-82z" />
    <glyph glyph-name="uni0E2C" unicode="&#xe2c;" horiz-adv-x="721" 
d="M164 0l-124 540h84l92 -425l111 317v68h61l119 -385l73 329q11 50 -1 69t-50 19h-40l10 65h42q41 0 59.5 13.5t26.5 49.5l9 40h80l-11 -49q-10 -43 -29 -63.5t-49 -26.5q52 -25 32 -112l-101 -449h-82l-111 345l-120 -345h-81z" />
    <glyph glyph-name="uni0E2D" unicode="&#xe2d;" horiz-adv-x="564" 
d="M257 -10q-62 0 -116 11.5t-91 26.5v272h198l4 -67h-120v-153q26 -9 58.5 -14.5t64.5 -5.5q65 0 103.5 20t56 66t17.5 123q0 80 -18.5 126t-62 65.5t-118.5 19.5q-43 0 -88.5 -6t-86.5 -20v68q40 14 91.5 21t104.5 7q138 0 199 -70.5t61 -210.5q0 -137 -61 -208t-196 -71z
" />
    <glyph glyph-name="uni0E2E" unicode="&#xe2e;" horiz-adv-x="596" 
d="M257 -10q-62 0 -116 11.5t-91 26.5v272h198l4 -67h-120v-153q26 -9 58.5 -14.5t64.5 -5.5q65 0 103.5 20t56 66t17.5 123q0 80 -18.5 126t-62 65.5t-118.5 19.5q-43 0 -88.5 -6t-86.5 -20v68q40 14 91.5 21t104.5 7q26 0 49 -2.5t43 -7.5h200l-4 -67h-87q31 -35 45 -86
t14 -118q0 -137 -61 -208t-196 -71z" />
    <glyph glyph-name="uni0E2F" unicode="&#xe2f;" horiz-adv-x="533" 
d="M381 0v310q-27 -18 -63.5 -28.5t-78.5 -10.5q-82 0 -130.5 44.5t-48.5 114.5q0 32 6 58.5t17 51.5h84q-13 -25 -19 -49.5t-6 -60.5q0 -43 24.5 -66t79.5 -23q84 0 135 39v160h82v-540h-82z" />
    <glyph glyph-name="uni0E30" unicode="&#xe30;" horiz-adv-x="326" 
d="M50 340v112h71v-49h155l-3 -63h-223zM50 64v112h71v-50h155l-3 -62h-223z" />
    <glyph glyph-name="uni0E31" unicode="&#xe31;" 
d="M-287 631v132h69v-73h269l-4 -59h-334z" />
    <glyph glyph-name="uni0E32" unicode="&#xe32;" horiz-adv-x="439" 
d="M287 0v349q0 45 -9 74t-36.5 43t-83.5 14q-32 0 -69.5 -7t-68.5 -19v68q30 12 71 20t82 8q103 0 149.5 -45.5t46.5 -146.5v-358h-82z" />
    <glyph glyph-name="uni0E33" unicode="&#xe33;" horiz-adv-x="439" 
d="M-112 610q-43 0 -74 29t-31 72q0 44 31 73t74 29q44 0 74 -29t30 -73q0 -43 -30 -72t-74 -29zM-112 662q20 0 34.5 15t14.5 34q0 20 -14.5 35t-34.5 15q-21 0 -35.5 -15t-14.5 -35q0 -19 14.5 -34t35.5 -15zM287 0v349q0 45 -9 74t-36.5 43t-83.5 14q-32 0 -69.5 -7
t-68.5 -19v68q30 12 71 20t82 8q103 0 149.5 -45.5t46.5 -146.5v-358h-82z" />
    <glyph glyph-name="uni0E34" unicode="&#xe34;" 
d="M-468 631l4 59h393v-59h-397z" />
    <glyph glyph-name="uni0E35" unicode="&#xe35;" 
d="M-468 631l4 59h324v85h69v-144h-397z" />
    <glyph glyph-name="uni0E36" unicode="&#xe36;" 
d="M-468 631l4 59h243q-5 10 -5 23q0 36 23.5 57.5t60.5 21.5q44 0 64 -24.5t20 -53.5q0 -34 -23.5 -58.5t-64.5 -24.5h-322zM-142 675q18 0 28.5 11.5t10.5 26.5q0 17 -11 28.5t-28 11.5q-16 0 -27.5 -11t-11.5 -29q0 -15 11 -26.5t28 -11.5z" />
    <glyph glyph-name="uni0E37" unicode="&#xe37;" 
d="M-468 631l4 59h205v85h62v-85h64v85h62v-144h-397z" />
    <glyph glyph-name="uni0E38" unicode="&#xe38;" 
d="M-141 -250v131h-66l4 56h133v-187h-71z" />
    <glyph glyph-name="uni0E39" unicode="&#xe39;" 
d="M-177 -258q-48 0 -76 25t-28 60v56h-53l3 54h111v-105q0 -35 43 -35q45 0 45 35v105h62v-110q0 -35 -28 -60t-79 -25z" />
    <glyph glyph-name="uni0E3A" unicode="&#xe3a;" 
d="M-110 -148q-19 0 -32.5 13t-13.5 32q0 20 13.5 33t32.5 13q20 0 33 -13t13 -33q0 -19 -13 -32t-33 -13z" />
    <glyph glyph-name="uni0E3F" unicode="&#xe3f;" horiz-adv-x="627" 
d="M266 -86v86h-196v644h196v86h64v-86h38q95 0 139.5 -44.5t44.5 -125.5q0 -53 -21.5 -88.5t-59.5 -53.5q49 -12 77.5 -46.5t28.5 -101.5q0 -94 -49 -139t-144 -45h-54v-86h-64zM152 362h114v219h-114v-219zM330 362h33q61 0 86.5 29.5t25.5 76.5q0 56 -26 84.5t-101 28.5
h-18v-219zM152 62h114v238h-114v-238zM330 62h40q65 0 95 28.5t30 96.5q0 56 -29.5 84.5t-108.5 28.5h-27v-238z" />
    <glyph glyph-name="uni0E40" unicode="&#xe40;" horiz-adv-x="306" 
d="M162 0q-43 0 -67.5 26.5t-24.5 69.5v444h82v-424q0 -49 47 -49h57v-67h-94z" />
    <glyph glyph-name="uni0E41" unicode="&#xe41;" horiz-adv-x="525" 
d="M391 0q-43 0 -67.5 26.5t-24.5 69.5v444h82v-424q0 -49 47 -49h47v-67h-84zM162 0q-43 0 -67.5 26.5t-24.5 69.5v444h82v-424q0 -49 47 -49h47v-67h-84z" />
    <glyph glyph-name="uni0E42" unicode="&#xe42;" horiz-adv-x="317" 
d="M203 0q-43 0 -67.5 26.5t-24.5 69.5v478q0 68 -26 100t-80 54v66h287v-66h-183q32 -17 50 -38.5t26 -55t8 -85.5v-433q0 -49 47 -49h57v-67h-94z" />
    <glyph glyph-name="uni0E43" unicode="&#xe43;" horiz-adv-x="288" 
d="M149 0q-43 0 -67.5 26.5t-24.5 69.5v347q0 42 13 72t31.5 51.5t37.5 39t32 34.5t13 37q0 32 -19 42t-54 10q-55 0 -111 -31v64q29 17 65.5 26t70.5 9q67 0 99.5 -30.5t32.5 -83.5q0 -31 -13 -53t-32 -40t-38.5 -38t-32.5 -46t-13 -64v-326q0 -49 47 -49h57v-67h-94z" />
    <glyph glyph-name="uni0E44" unicode="&#xe44;" horiz-adv-x="295" 
d="M179 0q-43 0 -67.5 26.5t-24.5 69.5v461q0 63 24.5 105t62.5 66h-179v66h280v-65q-61 -26 -83.5 -72.5t-22.5 -126.5v-414q0 -49 47 -49h57v-67h-94z" />
    <glyph glyph-name="uni0E45" unicode="&#xe45;" horiz-adv-x="439" 
d="M287 -160v509q0 45 -9 74t-36.5 43t-83.5 14q-32 0 -69.5 -7t-68.5 -19v68q30 12 71 20t82 8q103 0 149.5 -45.5t46.5 -146.5v-518h-82z" />
    <glyph glyph-name="uni0E46" unicode="&#xe46;" horiz-adv-x="582" 
d="M430 0v415q0 24 -8 44.5t-38 20.5q-24 0 -41 -13.5t-28 -36.5h-49q-11 25 -21.5 37.5t-35.5 12.5q-30 0 -48.5 -24t-18.5 -80q0 -55 26 -75.5t71 -20.5q19 0 37.5 2t31.5 6v-68q-33 -10 -84 -10q-76 0 -120 41.5t-44 124.5q0 77 36.5 125.5t98.5 48.5q34 0 56 -11.5
t40 -38.5q21 27 49 38.5t59 11.5q64 0 88.5 -34.5t24.5 -112.5v-403h-82z" />
    <glyph glyph-name="uni0E47" unicode="&#xe47;" 
d="M-351 629q-56 0 -88.5 28.5t-32.5 80.5q0 53 33.5 85t94.5 32h240l-4 -53h-229q-38 0 -56 -14.5t-18 -49.5q0 -31 17 -44.5t48 -13.5t44.5 11t13.5 33v23h54v-23q0 -23 12 -32t37 -9h64v-52h-69q-24 0 -43.5 7.5t-27.5 23.5q-10 -16 -37 -24.5t-53 -8.5z" />
    <glyph glyph-name="uni0E48" unicode="&#xe48;" 
d="M-151 631v162h82v-162h-82z" />
    <glyph glyph-name="uni0E49" unicode="&#xe49;" 
d="M-281 631v94h-79v59h138v-94h219l-4 -59h-274z" />
    <glyph glyph-name="uni0E4A" unicode="&#xe4a;" 
d="M-339 622q-51 0 -80 25t-29 78q0 50 25.5 76t64.5 26q52 0 66 -41h1q8 20 26.5 30.5t42.5 10.5q44 0 64 -21.5t20 -56.5v-72h14q15 0 20 7t5 25v114h53v-118q0 -33 -19.5 -53.5t-55.5 -20.5h-72v103q0 23 -6 32.5t-29 9.5q-25 0 -32 -12.5t-7 -32.5v-14h-47v14
q0 20 -6.5 32.5t-30.5 12.5q-23 0 -31.5 -12t-8.5 -41q0 -32 12.5 -42.5t46.5 -10.5h27v-48h-34z" />
    <glyph glyph-name="uni0E4B" unicode="&#xe4b;" 
d="M-218 631v54h-71v62h71v58h76v-58h72v-62h-72v-54h-76z" />
    <glyph glyph-name="uni0E4C" unicode="&#xe4c;" 
d="M-287 631v134h281l-3 -59h-209v-75h-69z" />
    <glyph glyph-name="uni0E4D" unicode="&#xe4d;" 
d="M-112 610q-43 0 -74 29t-31 72q0 44 31 73t74 29q44 0 74 -29t30 -73q0 -43 -30 -72t-74 -29zM-112 662q20 0 34.5 15t14.5 34q0 20 -14.5 35t-34.5 15q-21 0 -35.5 -15t-14.5 -35q0 -19 14.5 -34t35.5 -15z" />
    <glyph glyph-name="uni0E4E" unicode="&#xe4e;" 
d="M-192 631q-49 0 -76 18t-27 55q0 38 24.5 58.5t56.5 24.5q-9 8 -12.5 18.5t-3.5 22.5q0 27 24 44.5t69 17.5q14 0 29.5 -3t24.5 -8v-44q-22 12 -49 12q-22 0 -33 -5.5t-11 -20.5q0 -13 10.5 -19.5t32.5 -11.5v-46q-9 5 -21 6.5t-20 1.5q-28 0 -45 -8.5t-17 -31.5
q0 -19 14 -27t39 -8q18 0 33 3.5t28 12.5v-46q-13 -9 -31.5 -12.5t-38.5 -3.5z" />
    <glyph glyph-name="uni0E4F" unicode="&#xe4f;" horiz-adv-x="609" 
d="M305 -10q-70 0 -128 34t-92.5 92t-34.5 128t34.5 128t92.5 92.5t128 34.5t127.5 -34.5t92 -92.5t34.5 -128t-34.5 -128t-92 -92t-127.5 -34zM305 52q53 0 96.5 26t69.5 69.5t26 96.5t-26 96.5t-69.5 69.5t-96.5 26t-96.5 -26t-69.5 -69.5t-26 -96.5t26 -96.5t69.5 -69.5
t96.5 -26zM305 114q-36 0 -65.5 17.5t-47 47t-17.5 65.5t17.5 65.5t47 46.5t65.5 17t65 -17t46.5 -46.5t17.5 -65.5t-17.5 -65.5t-46.5 -47t-65 -17.5zM305 170q31 0 52.5 21.5t21.5 52.5t-21.5 52.5t-52.5 21.5t-52.5 -21.5t-21.5 -52.5t21.5 -52.5t52.5 -21.5z" />
    <glyph glyph-name="uni0E50" unicode="&#xe50;" horiz-adv-x="614" 
d="M307 -10q-117 0 -187 61.5t-70 185.5q0 123 71 185t186 62q116 0 186.5 -62t70.5 -185q0 -124 -70 -185.5t-187 -61.5zM307 60q86 0 130.5 41.5t44.5 135.5q0 93 -44.5 135t-130.5 42q-85 0 -130 -42t-45 -135q0 -94 45 -135.5t130 -41.5z" />
    <glyph glyph-name="uni0E51" unicode="&#xe51;" horiz-adv-x="641" 
d="M297 -104v73q107 25 160 85t53 165q0 94 -43.5 144.5t-145.5 50.5q-99 0 -144 -40t-45 -122q0 -70 31.5 -101t98.5 -31q25 0 52 6t43 17v-67q-20 -12 -47.5 -19t-63.5 -7q-95 0 -145.5 52.5t-50.5 149.5q0 110 69 171t202 61q137 0 203.5 -70.5t66.5 -196.5
q0 -118 -73 -203.5t-221 -117.5z" />
    <glyph glyph-name="uni0E52" unicode="&#xe52;" horiz-adv-x="696" 
d="M354 -10q-84 0 -148 26t-100 79t-36 133v312h77v-314q0 -86 53.5 -127.5t153.5 -41.5q86 0 140.5 35t54.5 112v146q0 37 -10.5 53.5t-40.5 16.5q-25 0 -40 -15t-21 -38h-51q-9 23 -20.5 38t-38.5 15q-32 0 -46 -24.5t-14 -80.5q0 -51 22.5 -68t66.5 -17q37 0 64 9v-57
q-16 -5 -35 -8t-43 -3q-63 0 -102.5 34.5t-39.5 109.5q0 89 32.5 129t84.5 40q34 0 55 -11.5t39 -37.5q22 27 48.5 38t56.5 11q56 0 83 -32.5t27 -91.5v-147q0 -73 -34.5 -122.5t-95.5 -75t-142 -25.5z" />
    <glyph glyph-name="uni0E53" unicode="&#xe53;" horiz-adv-x="640" 
d="M263 -10q-65 0 -113 21.5t-74 73t-26 140.5q0 134 44.5 196.5t121.5 62.5q73 0 109 -54q23 28 53.5 41t61.5 13q55 0 92.5 -30.5t37.5 -93.5v-360h-82v344q0 39 -15 54.5t-50 15.5q-25 0 -44.5 -15t-19.5 -45v-88l-69 1v88q0 30 -19.5 44.5t-44.5 14.5q-54 0 -74 -46
t-20 -143q0 -70 17 -105.5t49.5 -47.5t80.5 -12q18 0 36.5 2t31.5 6v-68q-31 -10 -84 -10z" />
    <glyph glyph-name="uni0E54" unicode="&#xe54;" horiz-adv-x="632" 
d="M280 -10q-106 0 -168 59.5t-62 174.5q0 124 84 192t234 68q77 0 126 8t90 34v-72q-38 -24 -90 -32t-123 -8q-123 0 -181 -46t-58 -144q0 -87 40.5 -125.5t114.5 -38.5q14 0 28.5 2.5t28.5 9.5q-22 32 -22 83q0 62 42 96.5t109 34.5q60 0 94 -18v-62q-29 17 -71 17
q-49 0 -73.5 -15.5t-24.5 -53.5q0 -39 19.5 -56.5t55.5 -22.5t87 -5h42v-70h-66q-40 0 -74 5.5t-60 17.5q-27 -17 -57.5 -25t-64.5 -8z" />
    <glyph glyph-name="uni0E55" unicode="&#xe55;" horiz-adv-x="632" 
d="M280 -10q-106 0 -168 59.5t-62 174.5q0 95 53.5 153t144.5 79q-16 3 -30 9t-22 10v73q22 -16 55.5 -31t70 -24t67.5 -9q67 0 112 8.5t83 33.5v-72q-38 -24 -90 -32t-123 -8q-106 0 -172.5 -46t-66.5 -144q0 -87 40.5 -125.5t114.5 -38.5q14 0 28.5 2.5t28.5 9.5
q-22 32 -22 83q0 62 42 96.5t109 34.5q60 0 94 -18v-62q-29 17 -71 17q-49 0 -73.5 -15.5t-24.5 -53.5q0 -39 19.5 -56.5t55.5 -22.5t87 -5h42v-70h-66q-40 0 -74 5.5t-60 17.5q-27 -17 -57.5 -25t-64.5 -8z" />
    <glyph glyph-name="uni0E56" unicode="&#xe56;" horiz-adv-x="649" 
d="M340 -10q-54 0 -103.5 12.5t-87.5 40.5v73q44 -31 90 -43.5t96 -12.5q92 0 137.5 43t45.5 133t-35 134t-127 44q-66 0 -108.5 -33t-62.5 -104h-64l-91 263h76l58 -173q26 55 78.5 86t124.5 31q83 0 134 -32t74.5 -88t23.5 -128q0 -114 -69 -180t-190 -66z" />
    <glyph glyph-name="uni0E57" unicode="&#xe57;" horiz-adv-x="855" 
d="M262 -10q-65 0 -112.5 21.5t-73.5 73t-26 140.5q0 134 42.5 196.5t118.5 62.5q39 0 65 -13.5t44 -40.5q23 28 52.5 41t62.5 13q59 0 93.5 -31t34.5 -94v-296h16q71 0 100 29t29 105v343h77v-328q0 -112 -49 -162t-168 -50h-80v345q0 39 -15.5 54.5t-51.5 15.5
q-23 0 -44.5 -14.5t-21.5 -44.5v-89h-72v88q0 31 -19 45.5t-44 14.5q-55 0 -73 -49.5t-18 -140.5q0 -72 17.5 -108t51.5 -48t81 -12q17 0 36.5 2t32.5 6v-65q-31 -10 -86 -10z" />
    <glyph glyph-name="uni0E58" unicode="&#xe58;" horiz-adv-x="629" 
d="M216 -10q-79 0 -122.5 57t-43.5 182q0 134 76.5 194.5t216.5 60.5q80 0 136.5 7.5t99.5 34.5v-72q-39 -24 -98.5 -32t-136.5 -8q-71 0 -118 -16t-70.5 -56t-23.5 -113q0 -97 22.5 -133t73.5 -36q28 0 50 15t22 45v80h63v-81q0 -20 12 -33.5t29.5 -19.5t33.5 -6
q23 0 38.5 3.5t30.5 13.5v153h-71l5 57h138v-253q-27 -21 -56 -32.5t-74 -11.5q-35 0 -66.5 13t-50.5 40q-35 -53 -116 -53z" />
    <glyph glyph-name="uni0E59" unicode="&#xe59;" horiz-adv-x="746" 
d="M236 -10q-81 0 -133.5 56t-52.5 180q0 132 43 195t125 63q44 0 68.5 -14t38.5 -40q17 27 46 40.5t66 13.5q49 0 85.5 -26.5t36.5 -80.5v-17h6q44 0 62 18.5t18 75.5v66h71v-49q0 -97 -38.5 -137t-128.5 -40h-52v47q0 41 -14.5 57.5t-50.5 16.5q-34 0 -51.5 -17t-8.5 -48
l103 -350h-72l-106 359q-8 28 -24 42t-51 14q-52 0 -72.5 -46.5t-20.5 -144.5q0 -64 14.5 -100.5t42 -51.5t65.5 -15q16 0 31.5 2t28.5 6v-68q-29 -7 -75 -7z" />
    <glyph glyph-name="uni0E5A" unicode="&#xe5a;" horiz-adv-x="828" 
d="M381 0v310q-27 -18 -63.5 -28.5t-78.5 -10.5q-82 0 -130.5 44.5t-48.5 114.5q0 32 6 58.5t17 51.5h84q-13 -25 -19 -49.5t-6 -60.5q0 -43 24.5 -66t79.5 -23q84 0 135 39v160h82v-178q26 -21 78 -21q84 0 135 39v160h82v-540h-82v310q-27 -18 -63.5 -28.5t-78.5 -10.5
q-48 0 -71 16v-287h-82z" />
    <glyph glyph-name="uni0E5B" unicode="&#xe5b;" horiz-adv-x="1202" 
d="M319 22q-127 0 -198 71.5t-71 197.5q0 75 27 133.5t78.5 92t124.5 33.5q72 0 115 -23.5t62 -65t19 -96.5q0 -65 -36.5 -114t-106.5 -75v73q41 22 53.5 51.5t12.5 63.5q0 59 -25.5 90.5t-93.5 31.5q-77 0 -116 -52t-39 -140q0 -106 50 -156t144 -50q118 0 171.5 67
t53.5 180q0 39 -3 69.5t-9 63.5h91q25 -43 46.5 -98.5t31.5 -105.5h2q8 25 15.5 59t12.5 68t3 57h71q9 -18 20.5 -47.5t23 -62.5t18.5 -63h2q6 18 12.5 46.5t12 59t6.5 54.5h63q10 -17 20.5 -44.5t19.5 -55.5t13 -48h2q23 49 20 125h51q1 -16 0.5 -33t-2.5 -29h65l-4 -49
h-71q-5 -23 -13 -42.5t-20 -42.5h-59q-2 15 -9.5 41t-16.5 53t-18 43h-2q-1 -16 -7 -46.5t-14 -62t-15 -49.5h-71q-6 39 -21.5 87t-32.5 82h-2q-1 -22 -8 -56.5t-16 -71t-19 -63.5h-70q-1 31 -10 68t-21 72.5t-24 61.5h-2q10 -107 -21 -186.5t-98 -123t-168 -43.5z" />
    <glyph glyph-name="uni1E0C" unicode="&#x1e0c;" horiz-adv-x="642" 
d="M70 0v644h252q140 0 205 -76t65 -250q0 -165 -63.5 -241.5t-206.5 -76.5h-252zM152 64h155q68 0 113 20.5t67.5 75.5t22.5 158q0 102 -20.5 159t-65 79.5t-117.5 22.5h-155v-515zM277 -164v77h80v-77h-80z" />
    <glyph glyph-name="uni1E0D" unicode="&#x1e0d;" horiz-adv-x="575" 
d="M264 -10q-100 0 -157 55.5t-57 184.5q0 128 59.5 191t159.5 63q89 0 154 -45v235h82v-674h-70l-6 50q-33 -31 -72.5 -45.5t-92.5 -14.5zM285 56q41 0 76 14t62 43v258q-25 22 -59 34.5t-77 12.5q-79 0 -117 -45.5t-38 -142.5q0 -93 35 -133.5t118 -40.5zM260 -164v77h80
v-77h-80z" />
    <glyph glyph-name="uni1E0E" unicode="&#x1e0e;" horiz-adv-x="642" 
d="M70 0v644h252q140 0 205 -76t65 -250q0 -165 -63.5 -241.5t-206.5 -76.5h-252zM152 64h155q68 0 113 20.5t67.5 75.5t22.5 158q0 102 -20.5 159t-65 79.5t-117.5 22.5h-155v-515zM140 -144v59h288v-59h-288z" />
    <glyph glyph-name="uni1E0F" unicode="&#x1e0f;" horiz-adv-x="575" 
d="M264 -10q-100 0 -157 55.5t-57 184.5q0 128 59.5 191t159.5 63q89 0 154 -45v235h82v-674h-70l-6 50q-33 -31 -72.5 -45.5t-92.5 -14.5zM285 56q41 0 76 14t62 43v258q-25 22 -59 34.5t-77 12.5q-79 0 -117 -45.5t-38 -142.5q0 -93 35 -133.5t118 -40.5zM152 -144v59h288
v-59h-288z" />
    <glyph glyph-name="uni1E20" unicode="&#x1e20;" horiz-adv-x="639" 
d="M208 717v59h288v-59h-288zM359 -10q-104 0 -172.5 39.5t-102.5 111t-34 167.5q0 105 32 183t100 120.5t176 42.5q56 0 101.5 -8t85.5 -22v-72q-40 15 -85 23.5t-95 8.5q-87 0 -138 -33t-73 -95t-22 -148q0 -119 55 -183.5t177 -64.5q43 0 83 7t71 19v205h-172v56h243
v-306q-29 -19 -84.5 -35t-145.5 -16z" />
    <glyph glyph-name="uni1E21" unicode="&#x1e21;" horiz-adv-x="547" 
d="M132 551v59h288v-59h-288zM254 -176q-53 0 -103.5 6t-86.5 19v68q40 -13 90 -20t96 -7q75 0 110 9t35 46q0 26 -18.5 37t-65.5 11h-126q-131 0 -131 88q0 29 18.5 55.5t55.5 37.5q-40 20 -59 55.5t-19 84.5q0 89 51.5 129.5t157.5 40.5q22 0 45.5 -3.5t36.5 -6.5h171
l-3 -56h-86q23 -19 33 -45.5t10 -58.5q0 -79 -46 -122.5t-141 -43.5q-16 0 -28.5 1.5t-29.5 3.5q-31 -1 -58 -17.5t-27 -42.5q0 -17 13.5 -25t49.5 -8h131q71 0 109 -28.5t38 -83.5q0 -70 -58 -97t-165 -27zM259 210q71 0 98 23t27 81t-28.5 84t-96.5 26q-67 0 -97 -25
t-30 -85q0 -55 28.5 -79.5t98.5 -24.5z" />
    <glyph glyph-name="uni1E24" unicode="&#x1e24;" horiz-adv-x="644" 
d="M70 0v644h82v-290h340v290h82v-644h-82v290h-340v-290h-82zM283 -164v77h80v-77h-80z" />
    <glyph glyph-name="uni1E25" unicode="&#x1e25;" horiz-adv-x="570" 
d="M70 0v674h82v-251q33 27 77.5 44t103.5 17q86 0 129 -42t43 -132v-310h-82v307q0 62 -27.5 86.5t-90.5 24.5q-40 0 -82.5 -17.5t-70.5 -45.5v-355h-82zM250 -164v77h80v-77h-80z" />
    <glyph glyph-name="uni1E2A" unicode="&#x1e2a;" horiz-adv-x="644" 
d="M70 0v644h82v-290h340v290h82v-644h-82v290h-340v-290h-82zM321 -196q-62 0 -94 35t-32 91h58q0 -38 18.5 -56t49.5 -18q33 0 51.5 18t18.5 56h58q0 -56 -32.5 -91t-95.5 -35z" />
    <glyph glyph-name="uni1E2B" unicode="&#x1e2b;" horiz-adv-x="570" 
d="M70 0v674h82v-251q33 27 77.5 44t103.5 17q86 0 129 -42t43 -132v-310h-82v307q0 62 -27.5 86.5t-90.5 24.5q-40 0 -82.5 -17.5t-70.5 -45.5v-355h-82zM292 -196q-62 0 -94 35t-32 91h58q0 -38 18.5 -56t49.5 -18q33 0 51.5 18t18.5 56h58q0 -56 -32.5 -91t-95.5 -35z
" />
    <glyph glyph-name="uni1E36" unicode="&#x1e36;" horiz-adv-x="525" 
d="M70 0v644h82v-580h343v-64h-425zM235 -164v77h80v-77h-80z" />
    <glyph glyph-name="uni1E37" unicode="&#x1e37;" horiz-adv-x="263" 
d="M173 -10q-48 0 -75.5 25.5t-27.5 86.5v572h82v-563q0 -30 10 -41t31 -11q23 0 45 6v-65q-16 -6 -32 -8t-33 -2zM112 -164v77h80v-77h-80z" />
    <glyph glyph-name="uni1E38" unicode="&#x1e38;" horiz-adv-x="525" 
d="M-30 717v59h288v-59h-288zM70 0v644h82v-580h343v-64h-425zM235 -164v77h80v-77h-80z" />
    <glyph glyph-name="uni1E39" unicode="&#x1e39;" horiz-adv-x="263" 
d="M-31 721v59h288v-59h-288zM173 -10q-48 0 -75.5 25.5t-27.5 86.5v572h82v-563q0 -30 10 -41t31 -11q23 0 45 6v-65q-16 -6 -32 -8t-33 -2zM112 -164v77h80v-77h-80z" />
    <glyph glyph-name="uni1E3A" unicode="&#x1e3a;" horiz-adv-x="525" 
d="M70 0v644h82v-580h343v-64h-425zM123 -132v59h288v-59h-288z" />
    <glyph glyph-name="uni1E3B" unicode="&#x1e3b;" horiz-adv-x="263" 
d="M173 -10q-48 0 -75.5 25.5t-27.5 86.5v572h82v-563q0 -30 10 -41t31 -11q23 0 45 6v-65q-16 -6 -32 -8t-33 -2zM-9 -132v59h288v-59h-288z" />
    <glyph glyph-name="uni1E42" unicode="&#x1e42;" horiz-adv-x="752" 
d="M70 0v644h88l218 -447l218 447h88v-644h-81v516l-197 -404h-55l-198 404v-516h-81zM336 -164v77h80v-77h-80z" />
    <glyph glyph-name="uni1E43" unicode="&#x1e43;" horiz-adv-x="855" 
d="M70 0v474h74l5 -54q38 30 80.5 47t91.5 17q53 0 82.5 -17t43.5 -48q34 28 78 46.5t105 18.5q81 0 120.5 -41.5t39.5 -127.5v-315h-81v307q0 63 -26.5 87t-85.5 24q-39 0 -74.5 -13t-60.5 -40q6 -25 6 -58v-307h-77v305q0 60 -20 86.5t-79 26.5q-40 0 -76.5 -17.5
t-64.5 -43.5v-357h-81zM388 -164v77h80v-77h-80z" />
    <glyph glyph-name="uni1E44" unicode="&#x1e44;" horiz-adv-x="663" 
d="M305 710v77h80v-77h-80zM70 0v644h74l367 -518v518h82v-644h-75l-366 517v-517h-82z" />
    <glyph glyph-name="uni1E45" unicode="&#x1e45;" horiz-adv-x="570" 
d="M242 544v77h80v-77h-80zM70 0v474h74l5 -54q34 28 79.5 46t104.5 18q90 0 131 -42t41 -132v-310h-82v307q0 62 -25 86.5t-96 24.5q-44 0 -83 -16t-67 -44v-358h-82z" />
    <glyph glyph-name="uni1E46" unicode="&#x1e46;" horiz-adv-x="663" 
d="M70 0v644h74l367 -518v518h82v-644h-75l-366 517v-517h-82zM291 -164v77h80v-77h-80z" />
    <glyph glyph-name="uni1E47" unicode="&#x1e47;" horiz-adv-x="570" 
d="M70 0v474h74l5 -54q34 28 79.5 46t104.5 18q90 0 131 -42t41 -132v-310h-82v307q0 62 -25 86.5t-96 24.5q-44 0 -83 -16t-67 -44v-358h-82zM247 -164v77h80v-77h-80z" />
    <glyph glyph-name="uni1E48" unicode="&#x1e48;" horiz-adv-x="663" 
d="M70 0v644h74l367 -518v518h82v-644h-75l-366 517v-517h-82zM193 -130v59h288v-59h-288z" />
    <glyph glyph-name="uni1E49" unicode="&#x1e49;" horiz-adv-x="570" 
d="M70 0v474h74l5 -54q34 28 79.5 46t104.5 18q90 0 131 -42t41 -132v-310h-82v307q0 62 -25 86.5t-96 24.5q-44 0 -83 -16t-67 -44v-358h-82zM140 -130v59h288v-59h-288z" />
    <glyph glyph-name="uni1E5A" unicode="&#x1e5a;" horiz-adv-x="602" 
d="M70 0v644h283q104 0 151.5 -54t47.5 -146q0 -71 -34.5 -118t-102.5 -63q20 -12 30.5 -27.5t21.5 -41.5l84 -194h-84l-82 187q-13 30 -31.5 43t-65.5 13h-136v-243h-82zM152 307h178q65 0 102.5 32.5t37.5 104.5q0 135 -129 135h-189v-272zM251 -164v77h80v-77h-80z" />
    <glyph glyph-name="uni1E5B" unicode="&#x1e5b;" horiz-adv-x="356" 
d="M70 0v474h74l6 -60q35 23 82.5 42t93.5 28v-64q-28 -6 -61 -16.5t-63 -23.5t-50 -27v-353h-82zM71 -164v77h80v-77h-80z" />
    <glyph glyph-name="uni1E5C" unicode="&#x1e5c;" horiz-adv-x="602" 
d="M149 717v59h288v-59h-288zM70 0v644h283q104 0 151.5 -54t47.5 -146q0 -71 -34.5 -118t-102.5 -63q20 -12 30.5 -27.5t21.5 -41.5l84 -194h-84l-82 187q-13 30 -31.5 43t-65.5 13h-136v-243h-82zM152 307h178q65 0 102.5 32.5t37.5 104.5q0 135 -129 135h-189v-272z
M251 -164v77h80v-77h-80z" />
    <glyph glyph-name="uni1E5D" unicode="&#x1e5d;" horiz-adv-x="356" 
d="M1 551v59h288v-59h-288zM70 0v474h74l6 -60q35 23 82.5 42t93.5 28v-64q-28 -6 -61 -16.5t-63 -23.5t-50 -27v-353h-82zM71 -164v77h80v-77h-80z" />
    <glyph glyph-name="uni1E5E" unicode="&#x1e5e;" horiz-adv-x="602" 
d="M70 0v644h283q104 0 151.5 -54t47.5 -146q0 -71 -34.5 -118t-102.5 -63q20 -12 30.5 -27.5t21.5 -41.5l84 -194h-84l-82 187q-13 30 -31.5 43t-65.5 13h-136v-243h-82zM152 307h178q65 0 102.5 32.5t37.5 104.5q0 135 -129 135h-189v-272zM147 -130v59h288v-59h-288z" />
    <glyph glyph-name="uni1E5F" unicode="&#x1e5f;" horiz-adv-x="356" 
d="M70 0v474h74l6 -60q35 23 82.5 42t93.5 28v-64q-28 -6 -61 -16.5t-63 -23.5t-50 -27v-353h-82zM-20 -130v59h288v-59h-288z" />
    <glyph glyph-name="uni1E60" unicode="&#x1e60;" horiz-adv-x="556" 
d="M240 710v77h80v-77h-80zM259 -10q-120 0 -194 30v73q42 -16 89.5 -24.5t97.5 -8.5q86 0 129 23.5t43 84.5q0 38 -17.5 60.5t-57.5 38t-107 31.5q-106 26 -149 67.5t-43 111.5q0 82 59 129.5t180 47.5q56 0 104 -8t74 -17v-72q-36 13 -78 20t-87 7q-82 0 -126 -24t-44 -83
q0 -33 15.5 -53.5t52.5 -35t103 -30.5q79 -19 123 -45.5t62 -62.5t18 -82q0 -85 -62 -131.5t-185 -46.5z" />
    <glyph glyph-name="uni1E61" unicode="&#x1e61;" horiz-adv-x="457" 
d="M200 544v77h80v-77h-80zM219 -10q-46 0 -87.5 6t-69.5 16v72q34 -12 71.5 -18t74.5 -6q63 0 90 13.5t27 50.5q0 27 -14.5 41t-44 25t-75.5 26q-41 14 -73 29t-50 40.5t-18 68.5q0 63 44 96.5t142 33.5q38 0 73 -5.5t61 -13.5v-72q-63 21 -121 21q-62 0 -89.5 -12.5
t-27.5 -46.5q0 -23 12.5 -36.5t39 -23t68.5 -23.5q55 -17 89 -35t50 -44t16 -68q0 -70 -49 -102.5t-139 -32.5z" />
    <glyph glyph-name="uni1E62" unicode="&#x1e62;" horiz-adv-x="556" 
d="M259 -10q-120 0 -194 30v73q42 -16 89.5 -24.5t97.5 -8.5q86 0 129 23.5t43 84.5q0 38 -17.5 60.5t-57.5 38t-107 31.5q-106 26 -149 67.5t-43 111.5q0 82 59 129.5t180 47.5q56 0 104 -8t74 -17v-72q-36 13 -78 20t-87 7q-82 0 -126 -24t-44 -83q0 -33 15.5 -53.5
t52.5 -35t103 -30.5q79 -19 123 -45.5t62 -62.5t18 -82q0 -85 -62 -131.5t-185 -46.5zM224 -164v77h80v-77h-80z" />
    <glyph glyph-name="uni1E63" unicode="&#x1e63;" horiz-adv-x="457" 
d="M219 -10q-46 0 -87.5 6t-69.5 16v72q34 -12 71.5 -18t74.5 -6q63 0 90 13.5t27 50.5q0 27 -14.5 41t-44 25t-75.5 26q-41 14 -73 29t-50 40.5t-18 68.5q0 63 44 96.5t142 33.5q38 0 73 -5.5t61 -13.5v-72q-63 21 -121 21q-62 0 -89.5 -12.5t-27.5 -46.5q0 -23 12.5 -36.5
t39 -23t68.5 -23.5q55 -17 89 -35t50 -44t16 -68q0 -70 -49 -102.5t-139 -32.5zM193 -164v77h80v-77h-80z" />
    <glyph glyph-name="uni1E6C" unicode="&#x1e6c;" horiz-adv-x="570" 
d="M244 0v579h-214v65h510v-65h-214v-579h-82zM245 -159v77h80v-77h-80z" />
    <glyph glyph-name="uni1E6D" unicode="&#x1e6d;" horiz-adv-x="358" 
d="M243 -10q-70 0 -105.5 37.5t-35.5 104.5v277h-72v65h72v117l82 25v-142h131l-5 -65h-126v-273q0 -43 19.5 -61.5t67.5 -18.5q26 0 57 10v-62q-37 -14 -85 -14zM183 -159v77h80v-77h-80z" />
    <glyph glyph-name="uni1E6E" unicode="&#x1e6e;" horiz-adv-x="570" 
d="M244 0v579h-214v65h510v-65h-214v-579h-82zM141 -125v59h288v-59h-288z" />
    <glyph glyph-name="uni1E6F" unicode="&#x1e6f;" horiz-adv-x="358" 
d="M243 -10q-70 0 -105.5 37.5t-35.5 104.5v277h-72v65h72v117l82 25v-142h131l-5 -65h-126v-273q0 -43 19.5 -61.5t67.5 -18.5q26 0 57 10v-62q-37 -14 -85 -14zM53 -125v59h288v-59h-288z" />
    <glyph glyph-name="Wgrave" unicode="&#x1e80;" horiz-adv-x="861" 
d="M394 688l-79 168h74l71 -168h-66zM200 0l-150 644h81l121 -530l139 459v71h67l150 -530l123 530h80l-149 -644h-87l-140 490l-147 -490h-88z" />
    <glyph glyph-name="wgrave" unicode="&#x1e81;" horiz-adv-x="736" 
d="M327 522l-79 168h74l71 -168h-66zM174 0l-124 474h82l93 -381l106 326v55h63l117 -381l93 381h82l-124 -474h-82l-111 344l-113 -344h-82z" />
    <glyph glyph-name="Wacute" unicode="&#x1e82;" horiz-adv-x="861" 
d="M399 688l71 168h74l-79 -168h-66zM200 0l-150 644h81l121 -530l139 459v71h67l150 -530l123 530h80l-149 -644h-87l-140 490l-147 -490h-88z" />
    <glyph glyph-name="wacute" unicode="&#x1e83;" horiz-adv-x="736" 
d="M329 522l71 168h74l-79 -168h-66zM174 0l-124 474h82l93 -381l106 326v55h63l117 -381l93 381h82l-124 -474h-82l-111 344l-113 -344h-82z" />
    <glyph glyph-name="Wdieresis" unicode="&#x1e84;" horiz-adv-x="861" 
d="M308 708v75h78v-75h-78zM484 708v75h78v-75h-78zM200 0l-150 644h81l121 -530l139 459v71h67l150 -530l123 530h80l-149 -644h-87l-140 490l-147 -490h-88z" />
    <glyph glyph-name="wdieresis" unicode="&#x1e85;" horiz-adv-x="736" 
d="M242 542v75h78v-75h-78zM418 542v75h78v-75h-78zM174 0l-124 474h82l93 -381l106 326v55h63l117 -381l93 381h82l-124 -474h-82l-111 344l-113 -344h-82z" />
    <glyph glyph-name="uni1E8E" unicode="&#x1e8e;" horiz-adv-x="642" 
d="M281 710v77h80v-77h-80zM280 0v240l-230 404h85l186 -334l186 334h85l-230 -404v-240h-82z" />
    <glyph glyph-name="uni1E8F" unicode="&#x1e8f;" horiz-adv-x="584" 
d="M260 544v77h80v-77h-80zM159 -176q-47 0 -82 13v66q17 -6 31.5 -8t29.5 -2q34 0 53.5 12t34.5 36.5t33 63.5l-209 469h85l165 -382l170 382h84l-199 -453q-25 -57 -51 -101.5t-60 -70t-85 -25.5z" />
    <glyph glyph-name="uni1E92" unicode="&#x1e92;" horiz-adv-x="572" 
d="M50 0v46l368 533h-351v65h455v-51l-365 -529h370v-64h-477zM257 -164v77h80v-77h-80z" />
    <glyph glyph-name="uni1E93" unicode="&#x1e93;" horiz-adv-x="485" 
d="M50 0v45l279 364h-266v65h365v-51l-275 -359h282v-64h-385zM200 -164v77h80v-77h-80z" />
    <glyph glyph-name="uni1E97" unicode="&#x1e97;" horiz-adv-x="358" 
d="M30 644v75h78v-75h-78zM206 644v75h78v-75h-78zM243 -10q-70 0 -105.5 37.5t-35.5 104.5v277h-72v65h72v117l82 25v-142h131l-5 -65h-126v-273q0 -43 19.5 -61.5t67.5 -18.5q26 0 57 10v-62q-37 -14 -85 -14z" />
    <glyph glyph-name="uni1E9E" unicode="&#x1e9e;" horiz-adv-x="623" 
d="M378 -10q-40 0 -77 5.5t-67 16.5v70q28 -12 62.5 -17t68.5 -5q126 0 126 122q0 56 -27.5 78.5t-91.5 22.5h-98v77l192 120q0 45 -35.5 74.5t-121.5 29.5q-84 0 -123 -35.5t-39 -112.5v-436h-82v435q0 106 63.5 162.5t180.5 56.5q83 0 135 -26.5t76 -71.5t24 -101
l-183 -112h47q79 0 122 -44t43 -118q0 -88 -51 -139.5t-144 -51.5z" />
    <glyph glyph-name="uni1EA0" unicode="&#x1ea0;" horiz-adv-x="685" 
d="M50 0l245 644h96l244 -644h-84l-68 177h-280l-68 -177h-85zM217 242h251l-126 331zM302 -164v77h80v-77h-80z" />
    <glyph glyph-name="uni1EA1" unicode="&#x1ea1;" horiz-adv-x="541" 
d="M217 -10q-45 0 -83 16t-61 47.5t-23 79.5q0 65 43 106.5t140 41.5h165v29q0 39 -10.5 62t-39.5 33t-85 10q-43 0 -83 -7t-75 -19v68q32 12 75.5 19.5t93.5 7.5q101 0 151.5 -41t50.5 -133v-310h-69l-6 54q-31 -32 -75 -48t-109 -16zM238 57q52 0 92 18.5t68 50.5v92h-163
q-56 0 -80 -21t-24 -64t29 -59.5t78 -16.5zM239 -164v77h80v-77h-80z" />
    <glyph glyph-name="uni1EA2" unicode="&#x1ea2;" horiz-adv-x="685" 
d="M308 688v83q59 3 76 14.5t17 37.5q0 25 -19 35t-59 10q-16 0 -34.5 -3.5t-31.5 -8.5v51q15 6 39 9.5t46 3.5q59 0 90 -24t31 -67q0 -40 -19.5 -63t-69.5 -30v-48h-66zM50 0l245 644h96l244 -644h-84l-68 177h-280l-68 -177h-85zM217 242h251l-126 331z" />
    <glyph glyph-name="uni1EA3" unicode="&#x1ea3;" horiz-adv-x="541" 
d="M240 522v83q59 3 76 14.5t17 37.5q0 25 -19 35t-59 10q-16 0 -34.5 -3.5t-31.5 -8.5v51q15 6 39 9.5t46 3.5q59 0 90 -24t31 -67q0 -40 -19.5 -63t-69.5 -30v-48h-66zM217 -10q-45 0 -83 16t-61 47.5t-23 79.5q0 65 43 106.5t140 41.5h165v29q0 39 -10.5 62t-39.5 33
t-85 10q-43 0 -83 -7t-75 -19v68q32 12 75.5 19.5t93.5 7.5q101 0 151.5 -41t50.5 -133v-310h-69l-6 54q-31 -32 -75 -48t-109 -16zM238 57q52 0 92 18.5t68 50.5v92h-163q-56 0 -80 -21t-24 -64t29 -59.5t78 -16.5z" />
    <glyph glyph-name="uni1EA4" unicode="&#x1ea4;" horiz-adv-x="685" 
d="M417 797l62 125h65l-68 -125h-59zM193 688l111 118h66l111 -118h-69l-75 83l-74 -83h-70zM50 0l245 644h96l244 -644h-84l-68 177h-280l-68 -177h-85zM217 242h251l-126 331z" />
    <glyph glyph-name="uni1EA5" unicode="&#x1ea5;" horiz-adv-x="541" 
d="M359 631l62 125h65l-68 -125h-59zM135 522l111 118h66l111 -118h-69l-75 83l-74 -83h-70zM217 -10q-45 0 -83 16t-61 47.5t-23 79.5q0 65 43 106.5t140 41.5h165v29q0 39 -10.5 62t-39.5 33t-85 10q-43 0 -83 -7t-75 -19v68q32 12 75.5 19.5t93.5 7.5q101 0 151.5 -41
t50.5 -133v-310h-69l-6 54q-31 -32 -75 -48t-109 -16zM238 57q52 0 92 18.5t68 50.5v92h-163q-56 0 -80 -21t-24 -64t29 -59.5t78 -16.5z" />
    <glyph glyph-name="uni1EA6" unicode="&#x1ea6;" horiz-adv-x="685" 
d="M200 797l-68 125h65l62 -125h-59zM195 688l111 118h66l111 -118h-70l-74 83l-75 -83h-69zM50 0l245 644h96l244 -644h-84l-68 177h-280l-68 -177h-85zM217 242h251l-126 331z" />
    <glyph glyph-name="uni1EA7" unicode="&#x1ea7;" horiz-adv-x="541" 
d="M126 631l-68 125h65l62 -125h-59zM121 522l111 118h66l111 -118h-70l-74 83l-75 -83h-69zM217 -10q-45 0 -83 16t-61 47.5t-23 79.5q0 65 43 106.5t140 41.5h165v29q0 39 -10.5 62t-39.5 33t-85 10q-43 0 -83 -7t-75 -19v68q32 12 75.5 19.5t93.5 7.5q101 0 151.5 -41
t50.5 -133v-310h-69l-6 54q-31 -32 -75 -48t-109 -16zM238 57q52 0 92 18.5t68 50.5v92h-163q-56 0 -80 -21t-24 -64t29 -59.5t78 -16.5z" />
    <glyph glyph-name="uni1EA8" unicode="&#x1ea8;" horiz-adv-x="685" 
d="M429 776v63q50 2 65 12.5t15 29.5q0 36 -50 36q-17 0 -31 -3.5t-26 -8.5v43q14 5 31.5 8.5t39.5 3.5q45 0 70.5 -20t25.5 -55q0 -32 -19 -50.5t-60 -23.5v-35h-61zM197 688l111 118h66l111 -118h-69l-75 83l-74 -83h-70zM50 0l245 644h96l244 -644h-84l-68 177h-280
l-68 -177h-85zM217 242h251l-126 331z" />
    <glyph glyph-name="uni1EA9" unicode="&#x1ea9;" horiz-adv-x="541" 
d="M360 609v63q50 2 65 12.5t15 29.5q0 36 -50 36q-17 0 -31 -3.5t-26 -8.5v43q14 5 31.5 8.5t39.5 3.5q45 0 70.5 -20t25.5 -55q0 -32 -19 -50.5t-60 -23.5v-35h-61zM128 521l111 118h66l111 -118h-69l-75 83l-74 -83h-70zM217 -10q-45 0 -83 16t-61 47.5t-23 79.5
q0 65 43 106.5t140 41.5h165v29q0 39 -10.5 62t-39.5 33t-85 10q-43 0 -83 -7t-75 -19v68q32 12 75.5 19.5t93.5 7.5q101 0 151.5 -41t50.5 -133v-310h-69l-6 54q-31 -32 -75 -48t-109 -16zM238 57q52 0 92 18.5t68 50.5v92h-163q-56 0 -80 -21t-24 -64t29 -59.5t78 -16.5z
" />
    <glyph glyph-name="uni1EAA" unicode="&#x1eaa;" horiz-adv-x="685" 
d="M413 808q-24 0 -47 9t-44.5 17.5t-41.5 8.5q-22 0 -41.5 -7t-34.5 -25v56q11 12 33 19.5t43 7.5q26 0 47.5 -8.5t42.5 -17.5t43 -9q47 0 71 33v-57q-9 -12 -28.5 -19.5t-42.5 -7.5zM198 688l111 118h66l111 -118h-69l-75 83l-74 -83h-70zM50 0l245 644h96l244 -644h-84
l-68 177h-280l-68 -177h-85zM217 242h251l-126 331z" />
    <glyph glyph-name="uni1EAB" unicode="&#x1eab;" horiz-adv-x="541" 
d="M351 642q-24 0 -47 9t-44.5 17.5t-41.5 8.5q-22 0 -41.5 -7t-34.5 -25v56q11 12 33 19.5t43 7.5q26 0 47.5 -8.5t42.5 -17.5t43 -9q47 0 71 33v-57q-9 -12 -28.5 -19.5t-42.5 -7.5zM136 522l111 118h66l111 -118h-69l-75 83l-74 -83h-70zM217 -10q-45 0 -83 16t-61 47.5
t-23 79.5q0 65 43 106.5t140 41.5h165v29q0 39 -10.5 62t-39.5 33t-85 10q-43 0 -83 -7t-75 -19v68q32 12 75.5 19.5t93.5 7.5q101 0 151.5 -41t50.5 -133v-310h-69l-6 54q-31 -32 -75 -48t-109 -16zM238 57q52 0 92 18.5t68 50.5v92h-163q-56 0 -80 -21t-24 -64t29 -59.5
t78 -16.5z" />
    <glyph glyph-name="uni1EAC" unicode="&#x1eac;" horiz-adv-x="685" 
d="M194 688l115 148h66l115 -148h-71l-77 102l-77 -102h-71zM50 0l245 644h96l244 -644h-84l-68 177h-280l-68 -177h-85zM217 242h251l-126 331zM302 -164v77h80v-77h-80z" />
    <glyph glyph-name="uni1EAD" unicode="&#x1ead;" horiz-adv-x="541" 
d="M127 522l115 148h66l115 -148h-71l-77 102l-77 -102h-71zM217 -10q-45 0 -83 16t-61 47.5t-23 79.5q0 65 43 106.5t140 41.5h165v29q0 39 -10.5 62t-39.5 33t-85 10q-43 0 -83 -7t-75 -19v68q32 12 75.5 19.5t93.5 7.5q101 0 151.5 -41t50.5 -133v-310h-69l-6 54
q-31 -32 -75 -48t-109 -16zM238 57q52 0 92 18.5t68 50.5v92h-163q-56 0 -80 -21t-24 -64t29 -59.5t78 -16.5zM235 -164v77h80v-77h-80z" />
    <glyph glyph-name="uni1EAE" unicode="&#x1eae;" horiz-adv-x="685" 
d="M303 792l62 125h65l-68 -125h-59zM342 688q-40 0 -73.5 13.5t-53.5 44.5t-20 82h52q0 -46 26 -69t69 -23t69 23t26 69h52q0 -51 -20 -82t-53.5 -44.5t-73.5 -13.5zM50 0l245 644h96l244 -644h-84l-68 177h-280l-68 -177h-85zM217 242h251l-126 331z" />
    <glyph glyph-name="uni1EAF" unicode="&#x1eaf;" horiz-adv-x="541" 
d="M252 626l62 125h65l-68 -125h-59zM291 522q-40 0 -73.5 13.5t-53.5 44.5t-20 82h52q0 -46 26 -69t69 -23t69 23t26 69h52q0 -51 -20 -82t-53.5 -44.5t-73.5 -13.5zM217 -10q-45 0 -83 16t-61 47.5t-23 79.5q0 65 43 106.5t140 41.5h165v29q0 39 -10.5 62t-39.5 33t-85 10
q-43 0 -83 -7t-75 -19v68q32 12 75.5 19.5t93.5 7.5q101 0 151.5 -41t50.5 -133v-310h-69l-6 54q-31 -32 -75 -48t-109 -16zM238 57q52 0 92 18.5t68 50.5v92h-163q-56 0 -80 -21t-24 -64t29 -59.5t78 -16.5z" />
    <glyph glyph-name="uni1EB0" unicode="&#x1eb0;" horiz-adv-x="685" 
d="M322 792l-68 125h65l62 -125h-59zM342 688q-40 0 -73.5 13.5t-53.5 44.5t-20 82h52q0 -46 26 -69t69 -23t69 23t26 69h52q0 -51 -20 -82t-53.5 -44.5t-73.5 -13.5zM50 0l245 644h96l244 -644h-84l-68 177h-280l-68 -177h-85zM217 242h251l-126 331z" />
    <glyph glyph-name="uni1EB1" unicode="&#x1eb1;" horiz-adv-x="541" 
d="M266 626l-68 125h65l62 -125h-59zM286 522q-40 0 -73.5 13.5t-53.5 44.5t-20 82h52q0 -46 26 -69t69 -23t69 23t26 69h52q0 -51 -20 -82t-53.5 -44.5t-73.5 -13.5zM217 -10q-45 0 -83 16t-61 47.5t-23 79.5q0 65 43 106.5t140 41.5h165v29q0 39 -10.5 62t-39.5 33t-85 10
q-43 0 -83 -7t-75 -19v68q32 12 75.5 19.5t93.5 7.5q101 0 151.5 -41t50.5 -133v-310h-69l-6 54q-31 -32 -75 -48t-109 -16zM238 57q52 0 92 18.5t68 50.5v92h-163q-56 0 -80 -21t-24 -64t29 -59.5t78 -16.5z" />
    <glyph glyph-name="uni1EB2" unicode="&#x1eb2;" horiz-adv-x="685" 
d="M304 793v58q50 2 66 13.5t16 31.5q0 39 -53 39q-16 0 -30 -3.5t-27 -9.5v41q14 5 33.5 8.5t40.5 3.5q44 0 68.5 -19.5t24.5 -54.5q0 -32 -18 -49.5t-61 -24.5v-34h-60zM342 688q-40 0 -73.5 13.5t-53.5 44.5t-20 82h52q0 -46 26 -69t69 -23t69 23t26 69h52q0 -51 -20 -82
t-53.5 -44.5t-73.5 -13.5zM50 0l245 644h96l244 -644h-84l-68 177h-280l-68 -177h-85zM217 242h251l-126 331z" />
    <glyph glyph-name="uni1EB3" unicode="&#x1eb3;" horiz-adv-x="541" 
d="M246 627v58q50 2 66 13.5t16 31.5q0 39 -53 39q-16 0 -30 -3.5t-27 -9.5v41q14 5 33.5 8.5t40.5 3.5q44 0 68.5 -19.5t24.5 -54.5q0 -32 -18 -49.5t-61 -24.5v-34h-60zM284 522q-40 0 -73.5 13.5t-53.5 44.5t-20 82h52q0 -46 26 -69t69 -23t69 23t26 69h52q0 -51 -20 -82
t-53.5 -44.5t-73.5 -13.5zM217 -10q-45 0 -83 16t-61 47.5t-23 79.5q0 65 43 106.5t140 41.5h165v29q0 39 -10.5 62t-39.5 33t-85 10q-43 0 -83 -7t-75 -19v68q32 12 75.5 19.5t93.5 7.5q101 0 151.5 -41t50.5 -133v-310h-69l-6 54q-31 -32 -75 -48t-109 -16zM238 57
q52 0 92 18.5t68 50.5v92h-163q-56 0 -80 -21t-24 -64t29 -59.5t78 -16.5z" />
    <glyph glyph-name="uni1EB4" unicode="&#x1eb4;" horiz-adv-x="685" 
d="M412 849q-24 0 -47 9t-44.5 17.5t-41.5 8.5q-22 0 -41.5 -7t-34.5 -25v56q11 12 33 19.5t43 7.5q26 0 47.5 -8.5t42.5 -17.5t43 -9q47 0 71 33v-57q-9 -12 -28.5 -19.5t-42.5 -7.5zM342 688q-40 0 -73.5 13.5t-53.5 44.5t-20 82h52q0 -46 26 -69t69 -23t69 23t26 69h52
q0 -51 -20 -82t-53.5 -44.5t-73.5 -13.5zM50 0l245 644h96l244 -644h-84l-68 177h-280l-68 -177h-85zM217 242h251l-126 331z" />
    <glyph glyph-name="uni1EB5" unicode="&#x1eb5;" horiz-adv-x="541" 
d="M358 683q-24 0 -47 9t-44.5 17.5t-41.5 8.5q-22 0 -41.5 -7t-34.5 -25v56q11 12 33 19.5t43 7.5q26 0 47.5 -8.5t42.5 -17.5t43 -9q47 0 71 33v-57q-9 -12 -28.5 -19.5t-42.5 -7.5zM288 522q-40 0 -73.5 13.5t-53.5 44.5t-20 82h52q0 -46 26 -69t69 -23t69 23t26 69h52
q0 -51 -20 -82t-53.5 -44.5t-73.5 -13.5zM217 -10q-45 0 -83 16t-61 47.5t-23 79.5q0 65 43 106.5t140 41.5h165v29q0 39 -10.5 62t-39.5 33t-85 10q-43 0 -83 -7t-75 -19v68q32 12 75.5 19.5t93.5 7.5q101 0 151.5 -41t50.5 -133v-310h-69l-6 54q-31 -32 -75 -48t-109 -16z
M238 57q52 0 92 18.5t68 50.5v92h-163q-56 0 -80 -21t-24 -64t29 -59.5t78 -16.5z" />
    <glyph glyph-name="uni1EB6" unicode="&#x1eb6;" horiz-adv-x="685" 
d="M341 688q-62 0 -94 35t-32 91h58q0 -38 18.5 -56t49.5 -18q33 0 51.5 18t18.5 56h58q0 -56 -32.5 -91t-95.5 -35zM50 0l245 644h96l244 -644h-84l-68 177h-280l-68 -177h-85zM217 242h251l-126 331zM302 -164v77h80v-77h-80z" />
    <glyph glyph-name="uni1EB7" unicode="&#x1eb7;" horiz-adv-x="541" 
d="M279 522q-62 0 -94 35t-32 91h58q0 -38 18.5 -56t49.5 -18q33 0 51.5 18t18.5 56h58q0 -56 -32.5 -91t-95.5 -35zM217 -10q-45 0 -83 16t-61 47.5t-23 79.5q0 65 43 106.5t140 41.5h165v29q0 39 -10.5 62t-39.5 33t-85 10q-43 0 -83 -7t-75 -19v68q32 12 75.5 19.5
t93.5 7.5q101 0 151.5 -41t50.5 -133v-310h-69l-6 54q-31 -32 -75 -48t-109 -16zM238 57q52 0 92 18.5t68 50.5v92h-163q-56 0 -80 -21t-24 -64t29 -59.5t78 -16.5zM240 -164v77h80v-77h-80z" />
    <glyph glyph-name="uni1EB8" unicode="&#x1eb8;" horiz-adv-x="555" 
d="M70 0v644h435v-65h-353v-225h317v-64h-317v-226h353v-64h-435zM236 -164v77h80v-77h-80z" />
    <glyph glyph-name="uni1EB9" unicode="&#x1eb9;" horiz-adv-x="533" 
d="M303 -10q-127 0 -190 61t-63 188q0 114 54.5 179.5t172.5 65.5q70 0 115.5 -25.5t68 -70t22.5 -100.5v-89h-351q4 -54 23.5 -85t59 -44.5t104.5 -13.5q73 0 134 25v-64q-31 -13 -69.5 -20t-80.5 -7zM132 258h278v39q0 58 -30.5 89.5t-100.5 31.5q-85 0 -116 -40t-31 -120
zM227 -164v77h80v-77h-80z" />
    <glyph glyph-name="uni1EBA" unicode="&#x1eba;" horiz-adv-x="555" 
d="M240 688v83q59 3 76 14.5t17 37.5q0 25 -19 35t-59 10q-16 0 -34.5 -3.5t-31.5 -8.5v51q15 6 39 9.5t46 3.5q59 0 90 -24t31 -67q0 -40 -19.5 -63t-69.5 -30v-48h-66zM70 0v644h435v-65h-353v-225h317v-64h-317v-226h353v-64h-435z" />
    <glyph glyph-name="uni1EBB" unicode="&#x1ebb;" horiz-adv-x="533" 
d="M236 522v83q59 3 76 14.5t17 37.5q0 25 -19 35t-59 10q-16 0 -34.5 -3.5t-31.5 -8.5v51q15 6 39 9.5t46 3.5q59 0 90 -24t31 -67q0 -40 -19.5 -63t-69.5 -30v-48h-66zM303 -10q-127 0 -190 61t-63 188q0 114 54.5 179.5t172.5 65.5q70 0 115.5 -25.5t68 -70t22.5 -100.5
v-89h-351q4 -54 23.5 -85t59 -44.5t104.5 -13.5q73 0 134 25v-64q-31 -13 -69.5 -20t-80.5 -7zM132 258h278v39q0 58 -30.5 89.5t-100.5 31.5q-85 0 -116 -40t-31 -120z" />
    <glyph glyph-name="uni1EBC" unicode="&#x1ebc;" horiz-adv-x="555" 
d="M352 708q-26 0 -51 9.5t-48 19t-45 9.5q-24 0 -45 -7.5t-38 -27.5v63q12 14 36 22t47 8q28 0 51.5 -9.5t46 -19t46.5 -9.5q51 0 77 36v-64q-10 -13 -30.5 -21.5t-46.5 -8.5zM70 0v644h435v-65h-353v-225h317v-64h-317v-226h353v-64h-435z" />
    <glyph glyph-name="uni1EBD" unicode="&#x1ebd;" horiz-adv-x="533" 
d="M343 542q-26 0 -51 9.5t-48 19t-45 9.5q-24 0 -45 -7.5t-38 -27.5v63q12 14 36 22t47 8q28 0 51.5 -9.5t46 -19t46.5 -9.5q51 0 77 36v-64q-10 -13 -30.5 -21.5t-46.5 -8.5zM303 -10q-127 0 -190 61t-63 188q0 114 54.5 179.5t172.5 65.5q70 0 115.5 -25.5t68 -70
t22.5 -100.5v-89h-351q4 -54 23.5 -85t59 -44.5t104.5 -13.5q73 0 134 25v-64q-31 -13 -69.5 -20t-80.5 -7zM132 258h278v39q0 58 -30.5 89.5t-100.5 31.5q-85 0 -116 -40t-31 -120z" />
    <glyph glyph-name="uni1EBE" unicode="&#x1ebe;" horiz-adv-x="555" 
d="M355 796l62 125h65l-68 -125h-59zM131 687l111 118h66l111 -118h-69l-75 83l-74 -83h-70zM70 0v644h435v-65h-353v-225h317v-64h-317v-226h353v-64h-435z" />
    <glyph glyph-name="uni1EBF" unicode="&#x1ebf;" horiz-adv-x="533" 
d="M349 630l62 125h65l-68 -125h-59zM125 521l111 118h66l111 -118h-69l-75 83l-74 -83h-70zM303 -10q-127 0 -190 61t-63 188q0 114 54.5 179.5t172.5 65.5q70 0 115.5 -25.5t68 -70t22.5 -100.5v-89h-351q4 -54 23.5 -85t59 -44.5t104.5 -13.5q73 0 134 25v-64
q-31 -13 -69.5 -20t-80.5 -7zM132 258h278v39q0 58 -30.5 89.5t-100.5 31.5q-85 0 -116 -40t-31 -120z" />
    <glyph glyph-name="uni1EC0" unicode="&#x1ec0;" horiz-adv-x="555" 
d="M154 796l-68 125h65l62 -125h-59zM149 687l111 118h66l111 -118h-70l-74 83l-75 -83h-69zM70 0v644h435v-65h-353v-225h317v-64h-317v-226h353v-64h-435z" />
    <glyph glyph-name="uni1EC1" unicode="&#x1ec1;" horiz-adv-x="533" 
d="M144 645l-68 125h65l62 -125h-59zM139 536l111 118h66l111 -118h-70l-74 83l-75 -83h-69zM303 -10q-127 0 -190 61t-63 188q0 114 54.5 179.5t172.5 65.5q70 0 115.5 -25.5t68 -70t22.5 -100.5v-89h-351q4 -54 23.5 -85t59 -44.5t104.5 -13.5q73 0 134 25v-64
q-31 -13 -69.5 -20t-80.5 -7zM132 258h278v39q0 58 -30.5 89.5t-100.5 31.5q-85 0 -116 -40t-31 -120z" />
    <glyph glyph-name="uni1EC2" unicode="&#x1ec2;" horiz-adv-x="555" 
d="M368 775v63q50 2 65 12.5t15 29.5q0 36 -50 36q-17 0 -31 -3.5t-26 -8.5v43q14 5 31.5 8.5t39.5 3.5q45 0 70.5 -20t25.5 -55q0 -32 -19 -50.5t-60 -23.5v-35h-61zM136 687l111 118h66l111 -118h-69l-75 83l-74 -83h-70zM70 0v644h435v-65h-353v-225h317v-64h-317v-226
h353v-64h-435z" />
    <glyph glyph-name="uni1EC3" unicode="&#x1ec3;" horiz-adv-x="533" 
d="M354 609v63q50 2 65 12.5t15 29.5q0 36 -50 36q-17 0 -31 -3.5t-26 -8.5v43q14 5 31.5 8.5t39.5 3.5q45 0 70.5 -20t25.5 -55q0 -32 -19 -50.5t-60 -23.5v-35h-61zM122 521l111 118h66l111 -118h-69l-75 83l-74 -83h-70zM303 -10q-127 0 -190 61t-63 188
q0 114 54.5 179.5t172.5 65.5q70 0 115.5 -25.5t68 -70t22.5 -100.5v-89h-351q4 -54 23.5 -85t59 -44.5t104.5 -13.5q73 0 134 25v-64q-31 -13 -69.5 -20t-80.5 -7zM132 258h278v39q0 58 -30.5 89.5t-100.5 31.5q-85 0 -116 -40t-31 -120z" />
    <glyph glyph-name="uni1EC4" unicode="&#x1ec4;" horiz-adv-x="555" 
d="M352 808q-24 0 -47 9t-44.5 17.5t-41.5 8.5q-22 0 -41.5 -7t-34.5 -25v56q11 12 33 19.5t43 7.5q26 0 47.5 -8.5t42.5 -17.5t43 -9q47 0 71 33v-57q-9 -12 -28.5 -19.5t-42.5 -7.5zM137 688l111 118h66l111 -118h-69l-75 83l-74 -83h-70zM70 0v644h435v-65h-353v-225h317
v-64h-317v-226h353v-64h-435z" />
    <glyph glyph-name="uni1EC5" unicode="&#x1ec5;" horiz-adv-x="533" 
d="M342 642q-24 0 -47 9t-44.5 17.5t-41.5 8.5q-22 0 -41.5 -7t-34.5 -25v56q11 12 33 19.5t43 7.5q26 0 47.5 -8.5t42.5 -17.5t43 -9q47 0 71 33v-57q-9 -12 -28.5 -19.5t-42.5 -7.5zM127 522l111 118h66l111 -118h-69l-75 83l-74 -83h-70zM303 -10q-127 0 -190 61t-63 188
q0 114 54.5 179.5t172.5 65.5q70 0 115.5 -25.5t68 -70t22.5 -100.5v-89h-351q4 -54 23.5 -85t59 -44.5t104.5 -13.5q73 0 134 25v-64q-31 -13 -69.5 -20t-80.5 -7zM132 258h278v39q0 58 -30.5 89.5t-100.5 31.5q-85 0 -116 -40t-31 -120z" />
    <glyph glyph-name="uni1EC6" unicode="&#x1ec6;" horiz-adv-x="555" 
d="M122 688l115 148h66l115 -148h-71l-77 102l-77 -102h-71zM70 0v644h435v-65h-353v-225h317v-64h-317v-226h353v-64h-435zM230 -164v77h80v-77h-80z" />
    <glyph glyph-name="uni1EC7" unicode="&#x1ec7;" horiz-adv-x="533" 
d="M122 522l115 148h66l115 -148h-71l-77 102l-77 -102h-71zM303 -10q-127 0 -190 61t-63 188q0 114 54.5 179.5t172.5 65.5q70 0 115.5 -25.5t68 -70t22.5 -100.5v-89h-351q4 -54 23.5 -85t59 -44.5t104.5 -13.5q73 0 134 25v-64q-31 -13 -69.5 -20t-80.5 -7zM132 258h278
v39q0 58 -30.5 89.5t-100.5 31.5q-85 0 -116 -40t-31 -120zM230 -164v77h80v-77h-80z" />
    <glyph glyph-name="uni1EC8" unicode="&#x1ec8;" horiz-adv-x="222" 
d="M77 688v83q59 3 76 14.5t17 37.5q0 25 -19 35t-59 10q-16 0 -34.5 -3.5t-31.5 -8.5v51q15 6 39 9.5t46 3.5q59 0 90 -24t31 -67q0 -40 -19.5 -63t-69.5 -30v-48h-66zM70 0v644h82v-644h-82z" />
    <glyph glyph-name="uni1EC9" unicode="&#x1ec9;" horiz-adv-x="295" 
d="M117 522v83q59 3 76 14.5t17 37.5q0 25 -19 35t-59 10q-16 0 -34.5 -3.5t-31.5 -8.5v51q15 6 39 9.5t46 3.5q59 0 90 -24t31 -67q0 -40 -19.5 -63t-69.5 -30v-48h-66zM143 0v409h-73l8 65h147v-474h-82z" />
    <glyph glyph-name="uni1ECA" unicode="&#x1eca;" horiz-adv-x="222" 
d="M70 0v644h82v-644h-82zM71 -164v77h80v-77h-80z" />
    <glyph glyph-name="uni1ECB" unicode="&#x1ecb;" horiz-adv-x="296" 
d="M135 585v75h91v-75h-91zM143 0v409h-73l8 65h147v-474h-82zM144 -164v77h80v-77h-80z" />
    <glyph glyph-name="uni1ECC" unicode="&#x1ecc;" horiz-adv-x="694" 
d="M347 -10q-151 0 -224 79.5t-73 252.5t73 252.5t224 79.5q152 0 224.5 -79.5t72.5 -252.5t-72.5 -252.5t-224.5 -79.5zM347 60q73 0 120.5 25t71 82.5t23.5 154.5t-23.5 154.5t-71 82.5t-120.5 25t-120.5 -25t-71 -82.5t-23.5 -154.5t23.5 -154.5t71 -82.5t120.5 -25z
M307 -164v77h80v-77h-80z" />
    <glyph glyph-name="uni1ECD" unicode="&#x1ecd;" horiz-adv-x="574" 
d="M287 -10q-124 0 -180.5 63.5t-56.5 183.5q0 119 57 183t180 64t180 -64t57 -183q0 -120 -56 -183.5t-181 -63.5zM287 60q85 0 120 42.5t35 134.5t-35.5 134.5t-119.5 42.5t-119.5 -42.5t-35.5 -134.5t35 -134.5t120 -42.5zM247 -164v77h80v-77h-80z" />
    <glyph glyph-name="uni1ECE" unicode="&#x1ece;" horiz-adv-x="694" 
d="M316 688v83q59 3 76 14.5t17 37.5q0 25 -19 35t-59 10q-16 0 -34.5 -3.5t-31.5 -8.5v51q15 6 39 9.5t46 3.5q59 0 90 -24t31 -67q0 -40 -19.5 -63t-69.5 -30v-48h-66zM347 -10q-151 0 -224 79.5t-73 252.5t73 252.5t224 79.5q152 0 224.5 -79.5t72.5 -252.5t-72.5 -252.5
t-224.5 -79.5zM347 60q73 0 120.5 25t71 82.5t23.5 154.5t-23.5 154.5t-71 82.5t-120.5 25t-120.5 -25t-71 -82.5t-23.5 -154.5t23.5 -154.5t71 -82.5t120.5 -25z" />
    <glyph glyph-name="uni1ECF" unicode="&#x1ecf;" horiz-adv-x="574" 
d="M255 522v83q59 3 76 14.5t17 37.5q0 25 -19 35t-59 10q-16 0 -34.5 -3.5t-31.5 -8.5v51q15 6 39 9.5t46 3.5q59 0 90 -24t31 -67q0 -40 -19.5 -63t-69.5 -30v-48h-66zM287 -10q-124 0 -180.5 63.5t-56.5 183.5q0 119 57 183t180 64t180 -64t57 -183q0 -120 -56 -183.5
t-181 -63.5zM287 60q85 0 120 42.5t35 134.5t-35.5 134.5t-119.5 42.5t-119.5 -42.5t-35.5 -134.5t35 -134.5t120 -42.5z" />
    <glyph glyph-name="uni1ED0" unicode="&#x1ed0;" horiz-adv-x="694" 
d="M431 797l62 125h65l-68 -125h-59zM207 688l111 118h66l111 -118h-69l-75 83l-74 -83h-70zM347 -10q-151 0 -224 79.5t-73 252.5t73 252.5t224 79.5q152 0 224.5 -79.5t72.5 -252.5t-72.5 -252.5t-224.5 -79.5zM347 60q73 0 120.5 25t71 82.5t23.5 154.5t-23.5 154.5
t-71 82.5t-120.5 25t-120.5 -25t-71 -82.5t-23.5 -154.5t23.5 -154.5t71 -82.5t120.5 -25z" />
    <glyph glyph-name="uni1ED1" unicode="&#x1ed1;" horiz-adv-x="574" 
d="M365 631l62 125h65l-68 -125h-59zM141 522l111 118h66l111 -118h-69l-75 83l-74 -83h-70zM287 -10q-124 0 -180.5 63.5t-56.5 183.5q0 119 57 183t180 64t180 -64t57 -183q0 -120 -56 -183.5t-181 -63.5zM287 60q85 0 120 42.5t35 134.5t-35.5 134.5t-119.5 42.5
t-119.5 -42.5t-35.5 -134.5t35 -134.5t120 -42.5z" />
    <glyph glyph-name="uni1ED2" unicode="&#x1ed2;" horiz-adv-x="694" 
d="M196 797l-68 125h65l62 -125h-59zM191 688l111 118h66l111 -118h-70l-74 83l-75 -83h-69zM347 -10q-151 0 -224 79.5t-73 252.5t73 252.5t224 79.5q152 0 224.5 -79.5t72.5 -252.5t-72.5 -252.5t-224.5 -79.5zM347 60q73 0 120.5 25t71 82.5t23.5 154.5t-23.5 154.5
t-71 82.5t-120.5 25t-120.5 -25t-71 -82.5t-23.5 -154.5t23.5 -154.5t71 -82.5t120.5 -25z" />
    <glyph glyph-name="uni1ED3" unicode="&#x1ed3;" horiz-adv-x="574" 
d="M139 631l-68 125h65l62 -125h-59zM134 522l111 118h66l111 -118h-70l-74 83l-75 -83h-69zM287 -10q-124 0 -180.5 63.5t-56.5 183.5q0 119 57 183t180 64t180 -64t57 -183q0 -120 -56 -183.5t-181 -63.5zM287 60q85 0 120 42.5t35 134.5t-35.5 134.5t-119.5 42.5
t-119.5 -42.5t-35.5 -134.5t35 -134.5t120 -42.5z" />
    <glyph glyph-name="uni1ED4" unicode="&#x1ed4;" horiz-adv-x="694" 
d="M434 776v63q50 2 65 12.5t15 29.5q0 36 -50 36q-17 0 -31 -3.5t-26 -8.5v43q14 5 31.5 8.5t39.5 3.5q45 0 70.5 -20t25.5 -55q0 -32 -19 -50.5t-60 -23.5v-35h-61zM202 688l111 118h66l111 -118h-69l-75 83l-74 -83h-70zM347 -10q-151 0 -224 79.5t-73 252.5t73 252.5
t224 79.5q152 0 224.5 -79.5t72.5 -252.5t-72.5 -252.5t-224.5 -79.5zM347 60q73 0 120.5 25t71 82.5t23.5 154.5t-23.5 154.5t-71 82.5t-120.5 25t-120.5 -25t-71 -82.5t-23.5 -154.5t23.5 -154.5t71 -82.5t120.5 -25z" />
    <glyph glyph-name="uni1ED5" unicode="&#x1ed5;" horiz-adv-x="574" 
d="M385 610v63q50 2 65 12.5t15 29.5q0 36 -50 36q-17 0 -31 -3.5t-26 -8.5v43q14 5 31.5 8.5t39.5 3.5q45 0 70.5 -20t25.5 -55q0 -32 -19 -50.5t-60 -23.5v-35h-61zM153 522l111 118h66l111 -118h-69l-75 83l-74 -83h-70zM287 -10q-124 0 -180.5 63.5t-56.5 183.5
q0 119 57 183t180 64t180 -64t57 -183q0 -120 -56 -183.5t-181 -63.5zM287 60q85 0 120 42.5t35 134.5t-35.5 134.5t-119.5 42.5t-119.5 -42.5t-35.5 -134.5t35 -134.5t120 -42.5z" />
    <glyph glyph-name="uni1ED6" unicode="&#x1ed6;" horiz-adv-x="694" 
d="M417 808q-24 0 -47 9t-44.5 17.5t-41.5 8.5q-22 0 -41.5 -7t-34.5 -25v56q11 12 33 19.5t43 7.5q26 0 47.5 -8.5t42.5 -17.5t43 -9q47 0 71 33v-57q-9 -12 -28.5 -19.5t-42.5 -7.5zM202 688l111 118h66l111 -118h-69l-75 83l-74 -83h-70zM347 -10q-151 0 -224 79.5
t-73 252.5t73 252.5t224 79.5q152 0 224.5 -79.5t72.5 -252.5t-72.5 -252.5t-224.5 -79.5zM347 60q73 0 120.5 25t71 82.5t23.5 154.5t-23.5 154.5t-71 82.5t-120.5 25t-120.5 -25t-71 -82.5t-23.5 -154.5t23.5 -154.5t71 -82.5t120.5 -25z" />
    <glyph glyph-name="uni1ED7" unicode="&#x1ed7;" horiz-adv-x="574" 
d="M357 642q-24 0 -47 9t-44.5 17.5t-41.5 8.5q-22 0 -41.5 -7t-34.5 -25v56q11 12 33 19.5t43 7.5q26 0 47.5 -8.5t42.5 -17.5t43 -9q47 0 71 33v-57q-9 -12 -28.5 -19.5t-42.5 -7.5zM153 522l111 118h66l111 -118h-69l-75 83l-74 -83h-70zM287 -10q-124 0 -180.5 63.5
t-56.5 183.5q0 119 57 183t180 64t180 -64t57 -183q0 -120 -56 -183.5t-181 -63.5zM287 60q85 0 120 42.5t35 134.5t-35.5 134.5t-119.5 42.5t-119.5 -42.5t-35.5 -134.5t35 -134.5t120 -42.5z" />
    <glyph glyph-name="uni1ED8" unicode="&#x1ed8;" horiz-adv-x="694" 
d="M199 688l115 148h66l115 -148h-71l-77 102l-77 -102h-71zM347 -10q-151 0 -224 79.5t-73 252.5t73 252.5t224 79.5q152 0 224.5 -79.5t72.5 -252.5t-72.5 -252.5t-224.5 -79.5zM347 60q73 0 120.5 25t71 82.5t23.5 154.5t-23.5 154.5t-71 82.5t-120.5 25t-120.5 -25
t-71 -82.5t-23.5 -154.5t23.5 -154.5t71 -82.5t120.5 -25zM307 -164v77h80v-77h-80z" />
    <glyph glyph-name="uni1ED9" unicode="&#x1ed9;" horiz-adv-x="574" 
d="M139 522l115 148h66l115 -148h-71l-77 102l-77 -102h-71zM287 -10q-124 0 -180.5 63.5t-56.5 183.5q0 119 57 183t180 64t180 -64t57 -183q0 -120 -56 -183.5t-181 -63.5zM287 60q85 0 120 42.5t35 134.5t-35.5 134.5t-119.5 42.5t-119.5 -42.5t-35.5 -134.5t35 -134.5
t120 -42.5zM247 -164v77h80v-77h-80z" />
    <glyph glyph-name="uni1EDA" unicode="&#x1eda;" horiz-adv-x="760" 
d="M325 688l71 168h74l-79 -168h-66zM347 -10q-151 0 -224 79.5t-73 252.5t73 252.5t224 79.5q152 0 225 -80q57 1 77 24.5t20 89.5h71q0 -89 -33 -129.5t-95 -48.5q32 -75 32 -188q0 -173 -72.5 -252.5t-224.5 -79.5zM347 60q73 0 120.5 25t71 82.5t23.5 154.5t-23.5 154.5
t-71 82.5t-120.5 25t-120.5 -25t-71 -82.5t-23.5 -154.5t23.5 -154.5t71 -82.5t120.5 -25z" />
    <glyph glyph-name="uni1EDB" unicode="&#x1edb;" horiz-adv-x="658" 
d="M262 522l71 168h74l-79 -168h-66zM287 -10q-124 0 -180.5 63.5t-56.5 183.5q0 119 57 183t180 64q64 0 109.5 -17.5t74.5 -51.5q58 1 77 27.5t19 93.5h71q0 -91 -34 -132t-99 -49q19 -48 19 -118q0 -120 -56 -183.5t-181 -63.5zM287 60q85 0 120 42.5t35 134.5
t-35.5 134.5t-119.5 42.5t-119.5 -42.5t-35.5 -134.5t35 -134.5t120 -42.5z" />
    <glyph glyph-name="uni1EDC" unicode="&#x1edc;" horiz-adv-x="760" 
d="M331 688l-79 168h74l71 -168h-66zM347 -10q-151 0 -224 79.5t-73 252.5t73 252.5t224 79.5q152 0 225 -80q57 1 77 24.5t20 89.5h71q0 -89 -33 -129.5t-95 -48.5q32 -75 32 -188q0 -173 -72.5 -252.5t-224.5 -79.5zM347 60q73 0 120.5 25t71 82.5t23.5 154.5t-23.5 154.5
t-71 82.5t-120.5 25t-120.5 -25t-71 -82.5t-23.5 -154.5t23.5 -154.5t71 -82.5t120.5 -25z" />
    <glyph glyph-name="uni1EDD" unicode="&#x1edd;" horiz-adv-x="658" 
d="M265 522l-79 168h74l71 -168h-66zM287 -10q-124 0 -180.5 63.5t-56.5 183.5q0 119 57 183t180 64q64 0 109.5 -17.5t74.5 -51.5q58 1 77 27.5t19 93.5h71q0 -91 -34 -132t-99 -49q19 -48 19 -118q0 -120 -56 -183.5t-181 -63.5zM287 60q85 0 120 42.5t35 134.5
t-35.5 134.5t-119.5 42.5t-119.5 -42.5t-35.5 -134.5t35 -134.5t120 -42.5z" />
    <glyph glyph-name="uni1EDE" unicode="&#x1ede;" horiz-adv-x="760" 
d="M322 688v83q59 3 76 14.5t17 37.5q0 25 -19 35t-59 10q-16 0 -34.5 -3.5t-31.5 -8.5v51q15 6 39 9.5t46 3.5q59 0 90 -24t31 -67q0 -40 -19.5 -63t-69.5 -30v-48h-66zM347 -10q-151 0 -224 79.5t-73 252.5t73 252.5t224 79.5q152 0 225 -80q57 1 77 24.5t20 89.5h71
q0 -89 -33 -129.5t-95 -48.5q32 -75 32 -188q0 -173 -72.5 -252.5t-224.5 -79.5zM347 60q73 0 120.5 25t71 82.5t23.5 154.5t-23.5 154.5t-71 82.5t-120.5 25t-120.5 -25t-71 -82.5t-23.5 -154.5t23.5 -154.5t71 -82.5t120.5 -25z" />
    <glyph glyph-name="uni1EDF" unicode="&#x1edf;" horiz-adv-x="658" 
d="M252 522v83q59 3 76 14.5t17 37.5q0 25 -19 35t-59 10q-16 0 -34.5 -3.5t-31.5 -8.5v51q15 6 39 9.5t46 3.5q59 0 90 -24t31 -67q0 -40 -19.5 -63t-69.5 -30v-48h-66zM287 -10q-124 0 -180.5 63.5t-56.5 183.5q0 119 57 183t180 64q64 0 109.5 -17.5t74.5 -51.5
q58 1 77 27.5t19 93.5h71q0 -91 -34 -132t-99 -49q19 -48 19 -118q0 -120 -56 -183.5t-181 -63.5zM287 60q85 0 120 42.5t35 134.5t-35.5 134.5t-119.5 42.5t-119.5 -42.5t-35.5 -134.5t35 -134.5t120 -42.5z" />
    <glyph glyph-name="uni1EE0" unicode="&#x1ee0;" horiz-adv-x="760" 
d="M438 707q-26 0 -51 9.5t-48 19t-45 9.5q-24 0 -45 -7.5t-38 -27.5v63q12 14 36 22t47 8q28 0 51.5 -9.5t46 -19t46.5 -9.5q51 0 77 36v-64q-10 -13 -30.5 -21.5t-46.5 -8.5zM347 -10q-151 0 -224 79.5t-73 252.5t73 252.5t224 79.5q152 0 225 -80q57 1 77 24.5t20 89.5
h71q0 -89 -33 -129.5t-95 -48.5q32 -75 32 -188q0 -173 -72.5 -252.5t-224.5 -79.5zM347 60q73 0 120.5 25t71 82.5t23.5 154.5t-23.5 154.5t-71 82.5t-120.5 25t-120.5 -25t-71 -82.5t-23.5 -154.5t23.5 -154.5t71 -82.5t120.5 -25z" />
    <glyph glyph-name="uni1EE1" unicode="&#x1ee1;" horiz-adv-x="658" 
d="M368 541q-26 0 -51 9.5t-48 19t-45 9.5q-24 0 -45 -7.5t-38 -27.5v63q12 14 36 22t47 8q28 0 51.5 -9.5t46 -19t46.5 -9.5q51 0 77 36v-64q-10 -13 -30.5 -21.5t-46.5 -8.5zM287 -10q-124 0 -180.5 63.5t-56.5 183.5q0 119 57 183t180 64q64 0 109.5 -17.5t74.5 -51.5
q58 1 77 27.5t19 93.5h71q0 -91 -34 -132t-99 -49q19 -48 19 -118q0 -120 -56 -183.5t-181 -63.5zM287 60q85 0 120 42.5t35 134.5t-35.5 134.5t-119.5 42.5t-119.5 -42.5t-35.5 -134.5t35 -134.5t120 -42.5z" />
    <glyph glyph-name="uni1EE2" unicode="&#x1ee2;" horiz-adv-x="760" 
d="M347 -10q-151 0 -224 79.5t-73 252.5t73 252.5t224 79.5q152 0 225 -80q57 1 77 24.5t20 89.5h71q0 -89 -33 -129.5t-95 -48.5q32 -75 32 -188q0 -173 -72.5 -252.5t-224.5 -79.5zM347 60q73 0 120.5 25t71 82.5t23.5 154.5t-23.5 154.5t-71 82.5t-120.5 25t-120.5 -25
t-71 -82.5t-23.5 -154.5t23.5 -154.5t71 -82.5t120.5 -25zM311 -164v77h80v-77h-80z" />
    <glyph glyph-name="uni1EE3" unicode="&#x1ee3;" horiz-adv-x="658" 
d="M287 -10q-124 0 -180.5 63.5t-56.5 183.5q0 119 57 183t180 64q64 0 109.5 -17.5t74.5 -51.5q58 1 77 27.5t19 93.5h71q0 -91 -34 -132t-99 -49q19 -48 19 -118q0 -120 -56 -183.5t-181 -63.5zM287 60q85 0 120 42.5t35 134.5t-35.5 134.5t-119.5 42.5t-119.5 -42.5
t-35.5 -134.5t35 -134.5t120 -42.5zM248 -164v77h80v-77h-80z" />
    <glyph glyph-name="uni1EE4" unicode="&#x1ee4;" horiz-adv-x="671" 
d="M336 -10q-132 0 -201.5 63t-69.5 183v408h82v-409q0 -88 49.5 -131.5t139.5 -43.5q89 0 138.5 43.5t49.5 131.5v409h82v-408q0 -120 -69.5 -183t-200.5 -63zM295 -164v77h80v-77h-80z" />
    <glyph glyph-name="uni1EE5" unicode="&#x1ee5;" horiz-adv-x="570" 
d="M237 -10q-85 0 -128.5 47t-43.5 137v300h82v-303q0 -59 29.5 -87t91.5 -28q44 0 83 16t67 44v358h82v-474h-74l-5 54q-34 -28 -81 -46t-103 -18zM235 -164v77h80v-77h-80z" />
    <glyph glyph-name="uni1EE6" unicode="&#x1ee6;" horiz-adv-x="671" 
d="M299 688v83q59 3 76 14.5t17 37.5q0 25 -19 35t-59 10q-16 0 -34.5 -3.5t-31.5 -8.5v51q15 6 39 9.5t46 3.5q59 0 90 -24t31 -67q0 -40 -19.5 -63t-69.5 -30v-48h-66zM336 -10q-132 0 -201.5 63t-69.5 183v408h82v-409q0 -88 49.5 -131.5t139.5 -43.5q89 0 138.5 43.5
t49.5 131.5v409h82v-408q0 -120 -69.5 -183t-200.5 -63z" />
    <glyph glyph-name="uni1EE7" unicode="&#x1ee7;" horiz-adv-x="570" 
d="M247 522v83q59 3 76 14.5t17 37.5q0 25 -19 35t-59 10q-16 0 -34.5 -3.5t-31.5 -8.5v51q15 6 39 9.5t46 3.5q59 0 90 -24t31 -67q0 -40 -19.5 -63t-69.5 -30v-48h-66zM237 -10q-85 0 -128.5 47t-43.5 137v300h82v-303q0 -59 29.5 -87t91.5 -28q44 0 83 16t67 44v358h82
v-474h-74l-5 54q-34 -28 -81 -46t-103 -18z" />
    <glyph glyph-name="uni1EE8" unicode="&#x1ee8;" horiz-adv-x="775" 
d="M310 688l71 168h74l-79 -168h-66zM336 -10q-132 0 -201.5 63t-69.5 183v408h82v-409q0 -88 49.5 -131.5t139.5 -43.5q89 0 138.5 43.5t49.5 131.5v409h82v-75q58 1 78 26.5t20 92.5h71q0 -102 -42 -142t-127 -41v-269q0 -120 -69.5 -183t-200.5 -63z" />
    <glyph glyph-name="uni1EE9" unicode="&#x1ee9;" horiz-adv-x="683" 
d="M256 522l71 168h74l-79 -168h-66zM237 -10q-85 0 -128.5 47t-43.5 137v300h82v-303q0 -59 29.5 -87t91.5 -28q44 0 83 16t67 44v358h82v-59q49 4 65.5 31.5t16.5 89.5h71q0 -91 -39.5 -135.5t-113.5 -45.5v-355h-74l-5 54q-34 -28 -81 -46t-103 -18z" />
    <glyph glyph-name="uni1EEA" unicode="&#x1eea;" horiz-adv-x="775" 
d="M312 688l-79 168h74l71 -168h-66zM336 -10q-132 0 -201.5 63t-69.5 183v408h82v-409q0 -88 49.5 -131.5t139.5 -43.5q89 0 138.5 43.5t49.5 131.5v409h82v-75q58 1 78 26.5t20 92.5h71q0 -102 -42 -142t-127 -41v-269q0 -120 -69.5 -183t-200.5 -63z" />
    <glyph glyph-name="uni1EEB" unicode="&#x1eeb;" horiz-adv-x="683" 
d="M263 522l-79 168h74l71 -168h-66zM237 -10q-85 0 -128.5 47t-43.5 137v300h82v-303q0 -59 29.5 -87t91.5 -28q44 0 83 16t67 44v358h82v-59q49 4 65.5 31.5t16.5 89.5h71q0 -91 -39.5 -135.5t-113.5 -45.5v-355h-74l-5 54q-34 -28 -81 -46t-103 -18z" />
    <glyph glyph-name="uni1EEC" unicode="&#x1eec;" horiz-adv-x="775" 
d="M308 688v83q59 3 76 14.5t17 37.5q0 25 -19 35t-59 10q-16 0 -34.5 -3.5t-31.5 -8.5v51q15 6 39 9.5t46 3.5q59 0 90 -24t31 -67q0 -40 -19.5 -63t-69.5 -30v-48h-66zM336 -10q-132 0 -201.5 63t-69.5 183v408h82v-409q0 -88 49.5 -131.5t139.5 -43.5q89 0 138.5 43.5
t49.5 131.5v409h82v-75q58 1 78 26.5t20 92.5h71q0 -102 -42 -142t-127 -41v-269q0 -120 -69.5 -183t-200.5 -63z" />
    <glyph glyph-name="uni1EED" unicode="&#x1eed;" horiz-adv-x="683" 
d="M254 522v83q59 3 76 14.5t17 37.5q0 25 -19 35t-59 10q-16 0 -34.5 -3.5t-31.5 -8.5v51q15 6 39 9.5t46 3.5q59 0 90 -24t31 -67q0 -40 -19.5 -63t-69.5 -30v-48h-66zM237 -10q-85 0 -128.5 47t-43.5 137v300h82v-303q0 -59 29.5 -87t91.5 -28q44 0 83 16t67 44v358h82
v-59q49 4 65.5 31.5t16.5 89.5h71q0 -91 -39.5 -135.5t-113.5 -45.5v-355h-74l-5 54q-34 -28 -81 -46t-103 -18z" />
    <glyph glyph-name="uni1EEE" unicode="&#x1eee;" horiz-adv-x="775" 
d="M409 707q-26 0 -51 9.5t-48 19t-45 9.5q-24 0 -45 -7.5t-38 -27.5v63q12 14 36 22t47 8q28 0 51.5 -9.5t46 -19t46.5 -9.5q51 0 77 36v-64q-10 -13 -30.5 -21.5t-46.5 -8.5zM336 -10q-132 0 -201.5 63t-69.5 183v408h82v-409q0 -88 49.5 -131.5t139.5 -43.5
q89 0 138.5 43.5t49.5 131.5v409h82v-75q58 1 78 26.5t20 92.5h71q0 -102 -42 -142t-127 -41v-269q0 -120 -69.5 -183t-200.5 -63z" />
    <glyph glyph-name="uni1EEF" unicode="&#x1eef;" horiz-adv-x="683" 
d="M367 541q-26 0 -51 9.5t-48 19t-45 9.5q-24 0 -45 -7.5t-38 -27.5v63q12 14 36 22t47 8q28 0 51.5 -9.5t46 -19t46.5 -9.5q51 0 77 36v-64q-10 -13 -30.5 -21.5t-46.5 -8.5zM237 -10q-85 0 -128.5 47t-43.5 137v300h82v-303q0 -59 29.5 -87t91.5 -28q44 0 83 16t67 44
v358h82v-59q49 4 65.5 31.5t16.5 89.5h71q0 -91 -39.5 -135.5t-113.5 -45.5v-355h-74l-5 54q-34 -28 -81 -46t-103 -18z" />
    <glyph glyph-name="uni1EF0" unicode="&#x1ef0;" horiz-adv-x="775" 
d="M336 -10q-132 0 -201.5 63t-69.5 183v408h82v-409q0 -88 49.5 -131.5t139.5 -43.5q89 0 138.5 43.5t49.5 131.5v409h82v-75q58 1 78 26.5t20 92.5h71q0 -102 -42 -142t-127 -41v-269q0 -120 -69.5 -183t-200.5 -63zM293 -164v77h80v-77h-80z" />
    <glyph glyph-name="uni1EF1" unicode="&#x1ef1;" horiz-adv-x="683" 
d="M237 -10q-85 0 -128.5 47t-43.5 137v300h82v-303q0 -59 29.5 -87t91.5 -28q44 0 83 16t67 44v358h82v-59q49 4 65.5 31.5t16.5 89.5h71q0 -91 -39.5 -135.5t-113.5 -45.5v-355h-74l-5 54q-34 -28 -81 -46t-103 -18zM241 -164v77h80v-77h-80z" />
    <glyph glyph-name="Ygrave" unicode="&#x1ef2;" horiz-adv-x="642" 
d="M301 688l-79 168h74l71 -168h-66zM280 0v240l-230 404h85l186 -334l186 334h85l-230 -404v-240h-82z" />
    <glyph glyph-name="ygrave" unicode="&#x1ef3;" horiz-adv-x="584" 
d="M274 522l-79 168h74l71 -168h-66zM159 -176q-47 0 -82 13v66q17 -6 31.5 -8t29.5 -2q34 0 53.5 12t34.5 36.5t33 63.5l-209 469h85l165 -382l170 382h84l-199 -453q-25 -57 -51 -101.5t-60 -70t-85 -25.5z" />
    <glyph glyph-name="uni1EF4" unicode="&#x1ef4;" horiz-adv-x="642" 
d="M280 0v240l-230 404h85l186 -334l186 334h85l-230 -404v-240h-82zM281 -149v77h80v-77h-80z" />
    <glyph glyph-name="uni1EF5" unicode="&#x1ef5;" horiz-adv-x="584" 
d="M159 -176q-47 0 -82 13v66q17 -6 31.5 -8t29.5 -2q34 0 53.5 12t34.5 36.5t33 63.5l-209 469h85l165 -382l170 382h84l-199 -453q-25 -57 -51 -101.5t-60 -70t-85 -25.5zM389 -149v77h80v-77h-80z" />
    <glyph glyph-name="uni1EF6" unicode="&#x1ef6;" horiz-adv-x="642" 
d="M279 688v83q59 3 76 14.5t17 37.5q0 25 -19 35t-59 10q-16 0 -34.5 -3.5t-31.5 -8.5v51q15 6 39 9.5t46 3.5q59 0 90 -24t31 -67q0 -40 -19.5 -63t-69.5 -30v-48h-66zM280 0v240l-230 404h85l186 -334l186 334h85l-230 -404v-240h-82z" />
    <glyph glyph-name="uni1EF7" unicode="&#x1ef7;" horiz-adv-x="584" 
d="M269 522v83q59 3 76 14.5t17 37.5q0 25 -19 35t-59 10q-16 0 -34.5 -3.5t-31.5 -8.5v51q15 6 39 9.5t46 3.5q59 0 90 -24t31 -67q0 -40 -19.5 -63t-69.5 -30v-48h-66zM159 -176q-47 0 -82 13v66q17 -6 31.5 -8t29.5 -2q34 0 53.5 12t34.5 36.5t33 63.5l-209 469h85
l165 -382l170 382h84l-199 -453q-25 -57 -51 -101.5t-60 -70t-85 -25.5z" />
    <glyph glyph-name="uni1EF8" unicode="&#x1ef8;" horiz-adv-x="642" 
d="M396 708q-26 0 -51 9.5t-48 19t-45 9.5q-24 0 -45 -7.5t-38 -27.5v63q12 14 36 22t47 8q28 0 51.5 -9.5t46 -19t46.5 -9.5q51 0 77 36v-64q-10 -13 -30.5 -21.5t-46.5 -8.5zM280 0v240l-230 404h85l186 -334l186 334h85l-230 -404v-240h-82z" />
    <glyph glyph-name="uni1EF9" unicode="&#x1ef9;" horiz-adv-x="584" 
d="M375 542q-26 0 -51 9.5t-48 19t-45 9.5q-24 0 -45 -7.5t-38 -27.5v63q12 14 36 22t47 8q28 0 51.5 -9.5t46 -19t46.5 -9.5q51 0 77 36v-64q-10 -13 -30.5 -21.5t-46.5 -8.5zM159 -176q-47 0 -82 13v66q17 -6 31.5 -8t29.5 -2q34 0 53.5 12t34.5 36.5t33 63.5l-209 469h85
l165 -382l170 382h84l-199 -453q-25 -57 -51 -101.5t-60 -70t-85 -25.5z" />
    <glyph glyph-name="uni2007" unicode="&#x2007;" horiz-adv-x="647" 
 />
    <glyph glyph-name="uni2010" unicode="&#x2010;" horiz-adv-x="510" 
d="M50 236v65h410v-65h-410z" />
    <glyph glyph-name="figuredash" unicode="&#x2012;" horiz-adv-x="613" 
d="M50 236v65h513v-65h-513z" />
    <glyph glyph-name="endash" unicode="&#x2013;" horiz-adv-x="585" 
d="M50 236v65h485v-65h-485z" />
    <glyph glyph-name="emdash" unicode="&#x2014;" horiz-adv-x="877" 
d="M50 236v65h777v-65h-777z" />
    <glyph glyph-name="uni2015" unicode="&#x2015;" horiz-adv-x="924" 
d="M50 236v65h824v-65h-824z" />
    <glyph glyph-name="quoteleft" unicode="&#x2018;" horiz-adv-x="224" 
d="M50 471l62 183h62l-49 -183h-75z" />
    <glyph glyph-name="quoteright" unicode="&#x2019;" horiz-adv-x="224" 
d="M50 471l49 183h75l-62 -183h-62z" />
    <glyph glyph-name="quotesinglbase" unicode="&#x201a;" horiz-adv-x="224" 
d="M50 -150l49 183h75l-62 -183h-62z" />
    <glyph glyph-name="quotedblleft" unicode="&#x201c;" horiz-adv-x="355" 
d="M50 471l62 183h57l-49 -183h-70zM187 471l62 183h56l-49 -183h-69z" />
    <glyph glyph-name="quotedblright" unicode="&#x201d;" horiz-adv-x="355" 
d="M50 471l50 183h69l-62 -183h-57zM187 471l49 183h69l-62 -183h-56z" />
    <glyph glyph-name="quotedblbase" unicode="&#x201e;" horiz-adv-x="355" 
d="M50 -119l50 183h69l-62 -183h-57zM187 -119l49 183h69l-62 -183h-56z" />
    <glyph glyph-name="dagger" unicode="&#x2020;" horiz-adv-x="555" 
d="M238 0l3 433l-191 -2v64l191 -2l-4 207h83l-4 -207l189 2v-64l-189 2l3 -433h-81z" />
    <glyph glyph-name="daggerdbl" unicode="&#x2021;" horiz-adv-x="555" 
d="M238 0l3 196l-191 -1v63l191 -2l-4 94l4 93l-191 -1v63l191 -2l-4 197h83l-4 -197l189 2v-63l-189 1l4 -93l-4 -94l189 2v-63l-189 1l3 -196h-81z" />
    <glyph glyph-name="bullet" unicode="&#x2022;" horiz-adv-x="339" 
d="M169 168q-33 0 -60 16t-43 43t-16 60t16 60.5t43 43.5t60 16q34 0 61 -16t43 -43.5t16 -60.5q0 -50 -35 -84.5t-85 -34.5z" />
    <glyph glyph-name="ellipsis" unicode="&#x2026;" horiz-adv-x="557" 
d="M50 0v67h72v-67h-72zM243 0v67h71v-67h-71zM436 0v67h71v-67h-71z" />
    <glyph glyph-name="perthousand" unicode="&#x2030;" horiz-adv-x="1023" 
d="M188 365q-70 0 -104 38.5t-34 99.5q0 70 34 110.5t104 40.5q69 0 103 -40.5t34 -110.5q0 -61 -34 -99.5t-103 -38.5zM146 0l342 644h77l-342 -644h-77zM188 420q44 0 62 22t18 62q0 50 -19 72t-61 22t-61 -22t-19 -72q0 -40 18.5 -62t61.5 -22zM526 -10q-70 0 -104 38.5
t-34 99.5q0 70 34 110.5t104 40.5q69 0 103 -40.5t34 -110.5q0 -61 -34 -99.5t-103 -38.5zM836 -10q-70 0 -104 38.5t-34 99.5q0 70 34 110.5t104 40.5q69 0 103 -40.5t34 -110.5q0 -61 -34 -99.5t-103 -38.5zM526 45q44 0 62 22t18 62q0 50 -19 72t-61 22t-61 -22t-19 -72
q0 -40 18.5 -62t61.5 -22zM836 45q44 0 62 22t18 62q0 50 -19 72t-61 22t-61 -22t-19 -72q0 -40 18.5 -62t61.5 -22z" />
    <glyph glyph-name="minute" unicode="&#x2032;" horiz-adv-x="174" 
d="M50 467v177h74l-13 -177h-61z" />
    <glyph glyph-name="second" unicode="&#x2033;" horiz-adv-x="321" 
d="M197 467v177h74l-13 -177h-61zM50 467v177h74l-13 -177h-61z" />
    <glyph glyph-name="guilsinglleft" unicode="&#x2039;" horiz-adv-x="387" 
d="M304 80l-254 187v39l254 187l33 -48l-213 -159l213 -158z" />
    <glyph glyph-name="guilsinglright" unicode="&#x203a;" horiz-adv-x="387" 
d="M83 80l-33 48l213 158l-213 159l33 48l254 -187v-39z" />
    <glyph glyph-name="fraction" unicode="&#x2044;" horiz-adv-x="138" 
d="M-130 0l316 662h82l-315 -662h-83z" />
    <glyph glyph-name="uni2070" unicode="&#x2070;" horiz-adv-x="360" 
d="M180 362q-66 0 -98 38t-32 102q0 71 30 111.5t100 40.5q71 0 100.5 -40.5t29.5 -111.5q0 -64 -31 -102t-99 -38zM180 409q42 0 57.5 25t15.5 68q0 52 -14.5 78.5t-58.5 26.5q-43 0 -58 -26.5t-15 -78.5q0 -43 16 -68t57 -25z" />
    <glyph glyph-name="uni2074" unicode="&#x2074;" horiz-adv-x="298" 
d="M180 370v58h-150v43l143 183h64v-183h31v-43h-31v-58h-57zM86 472h105v136z" />
    <glyph glyph-name="uni2075" unicode="&#x2075;" horiz-adv-x="303" 
d="M130 362q-21 0 -43.5 3t-36.5 8v48q16 -7 34.5 -9.5t36.5 -2.5q38 0 55.5 9t17.5 35t-13 35t-50 9h-80v40l7 107h175l-3 -47h-122l-3 -58h48q53 0 76.5 -22.5t23.5 -64.5q0 -40 -30.5 -65t-92.5 -25z" />
    <glyph glyph-name="uni2076" unicode="&#x2076;" horiz-adv-x="323" 
d="M164 362q-53 0 -83.5 26t-30.5 82v66q0 56 33.5 87t90.5 31q42 0 72 -10v-46q-25 9 -69 9q-76 0 -76 -63v-18q17 14 36 19.5t38 5.5q54 0 76 -23.5t22 -70.5q0 -43 -26 -69t-83 -26zM163 406q32 0 44.5 12.5t12.5 38.5q0 27 -10.5 38.5t-45.5 11.5q-17 0 -33 -6.5
t-30 -17.5v-22q0 -29 14.5 -42t47.5 -13z" />
    <glyph glyph-name="uni2077" unicode="&#x2077;" horiz-adv-x="289" 
d="M90 370l96 226h-146v48h209v-44l-98 -230h-61z" />
    <glyph glyph-name="uni2078" unicode="&#x2078;" horiz-adv-x="331" 
d="M166 362q-51 0 -83.5 20.5t-32.5 58.5q0 51 50 70q-24 11 -33 27.5t-9 37.5q0 35 29 56.5t79 21.5t78.5 -21.5t28.5 -56.5q0 -21 -8.5 -38t-35.5 -30q30 -10 41 -27t11 -40q0 -38 -32 -58.5t-83 -20.5zM177 527q26 8 34 17.5t8 30.5q0 20 -14.5 29.5t-38.5 9.5
q-25 0 -39.5 -9.5t-14.5 -29.5q0 -16 7.5 -26.5t27.5 -15.5zM166 401q28 0 44 10.5t16 30.5q0 18 -9.5 27t-35.5 15l-30 7q-22 -7 -33.5 -16t-11.5 -32q0 -42 60 -42z" />
    <glyph glyph-name="uni2079" unicode="&#x2079;" horiz-adv-x="323" 
d="M149 362q-42 0 -72 10v46q26 -9 69 -9q76 0 76 63v18q-17 -13 -36 -19t-38 -6q-54 0 -76 24t-22 70q0 44 26 69.5t83 25.5q53 0 83.5 -26t30.5 -82v-66q0 -55 -33.5 -86.5t-90.5 -31.5zM159 509q17 0 33.5 7t29.5 17v22q0 29 -14.5 42t-47.5 13q-32 0 -44.5 -12.5
t-12.5 -38.5q0 -27 11 -38.5t45 -11.5z" />
    <glyph glyph-name="uni207D" unicode="&#x207d;" horiz-adv-x="219" 
d="M106 352q-28 29 -42 74.5t-14 87.5t14 87.5t42 74.5h63q-33 -33 -47.5 -75.5t-14.5 -86.5t14.5 -87t47.5 -75h-63z" />
    <glyph glyph-name="uni207E" unicode="&#x207e;" horiz-adv-x="219" 
d="M50 352q34 32 48.5 75t14.5 87t-14.5 86.5t-48.5 75.5h63q29 -29 42.5 -74.5t13.5 -87.5t-13.5 -87.5t-42.5 -74.5h-63z" />
    <glyph glyph-name="uni207F" unicode="&#x207f;" horiz-adv-x="362" 
d="M55 386v262h52l2 -29q21 16 46 25t59 9q45 0 71.5 -23t26.5 -71v-173h-55v161q0 35 -13 48.5t-50 13.5q-24 0 -46 -10t-37 -25v-188h-56z" />
    <glyph glyph-name="uni2080" unicode="&#x2080;" horiz-adv-x="360" 
d="M180 -128q-66 0 -98 38t-32 102q0 71 30 111.5t100 40.5q71 0 100.5 -40.5t29.5 -111.5q0 -64 -31 -102t-99 -38zM180 -81q42 0 57.5 25t15.5 68q0 52 -14.5 78.5t-58.5 26.5q-43 0 -58 -26.5t-15 -78.5q0 -43 16 -68t57 -25z" />
    <glyph glyph-name="uni2081" unicode="&#x2081;" horiz-adv-x="212" 
d="M124 -120v228l-74 -16v46l132 26v-284h-58z" />
    <glyph glyph-name="uni2082" unicode="&#x2082;" horiz-adv-x="300" 
d="M50 -120v32q14 24 34 43.5t45 39.5q35 29 47.5 46.5t12.5 37.5q0 21 -13 29.5t-45 8.5q-17 0 -36 -4t-36 -10v47q14 5 38 9.5t50 4.5q49 0 75 -25t26 -60q0 -30 -13.5 -48.5t-43.5 -46.5q-18 -17 -32.5 -28t-28.5 -29h120v-47h-200z" />
    <glyph glyph-name="uni2083" unicode="&#x2083;" horiz-adv-x="303" 
d="M133 -128q-22 0 -46 3.5t-37 8.5v45q33 -13 71 -13q39 0 55 9.5t16 32.5q0 41 -65 41h-37l3 41h31q32 0 47 10t15 33q0 20 -15.5 28t-48.5 8q-17 0 -34.5 -3.5t-32.5 -8.5v45q13 5 35.5 8.5t44.5 3.5q62 0 87 -21.5t25 -56.5q0 -22 -10.5 -40.5t-34.5 -26.5
q28 -6 39.5 -23t11.5 -40q0 -84 -120 -84z" />
    <glyph glyph-name="uni2084" unicode="&#x2084;" horiz-adv-x="298" 
d="M180 -120v58h-150v43l143 183h64v-183h31v-43h-31v-58h-57zM86 -18h105v136z" />
    <glyph glyph-name="uni2085" unicode="&#x2085;" horiz-adv-x="303" 
d="M130 -128q-21 0 -43.5 3t-36.5 8v48q16 -7 34.5 -9.5t36.5 -2.5q38 0 55.5 9t17.5 35t-13 35t-50 9h-80v40l7 107h175l-3 -47h-122l-3 -58h48q53 0 76.5 -22.5t23.5 -64.5q0 -40 -30.5 -65t-92.5 -25z" />
    <glyph glyph-name="uni2086" unicode="&#x2086;" horiz-adv-x="323" 
d="M164 -128q-53 0 -83.5 26t-30.5 82v66q0 56 33.5 87t90.5 31q42 0 72 -10v-46q-25 9 -69 9q-76 0 -76 -63v-18q17 14 36 19.5t38 5.5q54 0 76 -23.5t22 -70.5q0 -43 -26 -69t-83 -26zM163 -84q32 0 44.5 12.5t12.5 38.5q0 27 -10.5 38.5t-45.5 11.5q-17 0 -33 -6.5
t-30 -17.5v-22q0 -29 14.5 -42t47.5 -13z" />
    <glyph glyph-name="uni2087" unicode="&#x2087;" horiz-adv-x="289" 
d="M90 -120l96 226h-146v48h209v-44l-98 -230h-61z" />
    <glyph glyph-name="uni2088" unicode="&#x2088;" horiz-adv-x="331" 
d="M166 -128q-51 0 -83.5 20.5t-32.5 58.5q0 51 50 70q-24 11 -33 27.5t-9 37.5q0 35 29 56.5t79 21.5t78.5 -21.5t28.5 -56.5q0 -21 -8.5 -38t-35.5 -30q30 -10 41 -27t11 -40q0 -38 -32 -58.5t-83 -20.5zM177 37q26 8 34 17.5t8 30.5q0 20 -14.5 29.5t-38.5 9.5
q-25 0 -39.5 -9.5t-14.5 -29.5q0 -16 7.5 -26.5t27.5 -15.5zM166 -89q28 0 44 10.5t16 30.5q0 18 -9.5 27t-35.5 15l-30 7q-22 -7 -33.5 -16t-11.5 -32q0 -42 60 -42z" />
    <glyph glyph-name="uni2089" unicode="&#x2089;" horiz-adv-x="323" 
d="M149 -128q-42 0 -72 10v46q26 -9 69 -9q76 0 76 63v18q-17 -13 -36 -19t-38 -6q-54 0 -76 24t-22 70q0 44 26 69.5t83 25.5q53 0 83.5 -26t30.5 -82v-66q0 -55 -33.5 -86.5t-90.5 -31.5zM159 19q17 0 33.5 7t29.5 17v22q0 29 -14.5 42t-47.5 13q-32 0 -44.5 -12.5
t-12.5 -38.5q0 -27 11 -38.5t45 -11.5z" />
    <glyph glyph-name="uni208D" unicode="&#x208d;" horiz-adv-x="219" 
d="M106 -146q-28 29 -42 74.5t-14 87.5t14 87.5t42 74.5h63q-33 -33 -47.5 -75.5t-14.5 -86.5t14.5 -87t47.5 -75h-63z" />
    <glyph glyph-name="uni208E" unicode="&#x208e;" horiz-adv-x="219" 
d="M50 -146q33 32 47.5 75t14.5 87t-14.5 86.5t-47.5 75.5h63q28 -29 42 -74.5t14 -87.5t-14 -87.5t-42 -74.5h-63z" />
    <glyph glyph-name="colonmonetary" unicode="&#x20a1;" horiz-adv-x="595" 
d="M128 -31l28 112q-53 35 -79.5 93t-26.5 134q0 127 57 206t183 95l16 62h69l-15 -57q16 0 30.5 -1t28.5 -2l15 60h69l-18 -70q16 -3 31 -7.5t29 -9.5v-72q-18 7 -37.5 12.5t-39.5 9.5l-111 -434h10q45 0 91.5 7t86.5 22v-73q-39 -12 -84.5 -19t-101.5 -7h-20l-15 -61h-68
l17 68q-28 4 -56 14l-21 -82h-68zM290 106l111 437q-9 1 -18 1h-18h-11.5t-11.5 -1l-107 -421q12 -5 26 -9t29 -7zM177 163l94 370q-76 -20 -107.5 -77.5t-31.5 -147.5q0 -96 45 -145z" />
    <glyph glyph-name="lira" unicode="&#x20a4;" horiz-adv-x="503" 
d="M50 0v65h26q31 0 45 19t14 52v56h-70v65h70v74h-70v65h70v101q0 75 48.5 116t121.5 41q70 0 111 -19v-63q-14 8 -39 12t-48 4q-55 0 -83.5 -21t-28.5 -74v-97h198l-3 -65h-195v-74h198l-3 -65h-195v-52q0 -25 -5.5 -44t-21.5 -31h263v-65h-403z" />
    <glyph glyph-name="uni20A6" unicode="&#x20a6;" horiz-adv-x="652" 
d="M108 0v202h-58v67h58v89h-58v66h58v220h75l120 -220h160v220h82v-220h57v-66h-57v-89h57v-67h-57v-202h-75l-111 202h-169v-202h-82zM190 424h48l-48 89v-89zM190 269h133l-49 89h-84v-89zM387 269h76v89h-124zM463 130v72h-39z" />
    <glyph glyph-name="peseta" unicode="&#x20a7;" horiz-adv-x="1151" 
d="M70 0v644h177q108 0 159 -58t51 -150q0 -94 -57.5 -149.5t-156.5 -55.5h-91v-231h-82zM152 297h80q72 0 109 37.5t37 101.5q0 68 -35 105t-106 37h-85v-281zM913 -10q-46 0 -87.5 6t-69.5 16v69q34 -12 71.5 -18t74.5 -6q63 0 90 15t27 52q0 27 -14.5 41t-44 25t-75.5 26
q-41 14 -73 29t-50 40.5t-18 68.5q0 63 44 96.5t142 33.5q38 0 73 -5.5t61 -13.5v-68q-28 11 -60 16t-61 5q-62 0 -89.5 -14.5t-27.5 -48.5q0 -23 12.5 -36.5t39 -23t68.5 -23.5q55 -17 89 -35t50 -44t16 -68q0 -70 -49 -102.5t-139 -32.5zM650 -10q-69 0 -104.5 37.5
t-35.5 104.5v137h-66v63h66v122l81 20v-142h132l-3 -63h-129v-134q0 -41 21 -63t67 -22q13 0 27 2.5t30 8.5v-57q-19 -7 -39.5 -10.5t-46.5 -3.5z" />
    <glyph glyph-name="dong" unicode="&#x20ab;" horiz-adv-x="595" 
d="M264 -10q-100 0 -157 58.5t-57 187.5q0 128 57.5 188t157.5 60q93 0 158 -45v105h-173v65h173v65h82v-65h60v-65h-60v-544h-70l-6 50q-33 -31 -72.5 -45.5t-92.5 -14.5zM285 56q41 0 76 14t62 43v258q-25 22 -59 34.5t-77 12.5q-79 0 -117 -42.5t-38 -139.5
q0 -93 35 -136.5t118 -43.5zM102 -120v65h417v-65h-417z" />
    <glyph glyph-name="Euro" unicode="&#x20ac;" horiz-adv-x="594" 
d="M383 -10q-121 0 -185 55.5t-84 149.5h-74v57h66q-1 13 -1.5 26.5t-0.5 27.5v27t1 26h-65v57h71q11 73 41.5 126t86.5 82.5t143 29.5q56 0 94 -8t78 -22v-71q-40 16 -77.5 23.5t-88.5 7.5q-96 0 -139.5 -44t-55.5 -124h243v-57h-249q-1 -13 -1 -26v-27t0.5 -27.5
t1.5 -26.5h248v-57h-239q16 -67 61.5 -101t132.5 -34q47 0 85 6.5t78 20.5v-71q-40 -12 -77.5 -19t-93.5 -7z" />
    <glyph glyph-name="uni20B1" unicode="&#x20b1;" horiz-adv-x="604" 
d="M66 0v344h-36v63h36v61h-36v63h36v113h257q77 0 125 -30.5t68 -82.5h58v-63h-43q1 -8 1.5 -16t0.5 -16q0 -7 -0.5 -14.5t-1.5 -14.5h43v-63h-59q-23 -52 -74 -81.5t-122 -29.5h-171v-233h-82zM148 531h277q-36 48 -114 48h-163v-48zM148 407h300q3 14 3 29q0 8 -0.5 16.5
t-1.5 15.5h-301v-61zM148 297h158q79 0 117 47h-275v-47z" />
    <glyph glyph-name="uni20B2" unicode="&#x20b2;" horiz-adv-x="639" 
d="M321 -120v112q-137 11 -204 96t-67 220q0 99 28 173.5t87.5 119t155.5 51.5v83h64v-82q47 -1 86 -9t74 -20v-72q-36 14 -76 22t-84 9v-236h204v-306q-27 -17 -76.5 -32.5t-127.5 -17.5v-111h-64zM321 62v519q-105 -12 -147 -84t-42 -189q0 -108 45 -171.5t144 -74.5z
M385 60q37 2 71.5 9t61.5 17v205h-133v-231z" />
    <glyph glyph-name="uni20B5" unicode="&#x20b5;" horiz-adv-x="595" 
d="M321 -120v112q-137 11 -204 96t-67 220q0 99 28 173.5t87.5 119t155.5 51.5v83h64v-82q47 -1 86 -9t74 -20v-72q-36 14 -76 22t-84 9v-523q41 1 82.5 8.5t77.5 20.5v-73q-34 -10 -73.5 -16.5t-86.5 -8.5v-111h-64zM321 62v519q-105 -12 -147 -84t-42 -189
q0 -107 45.5 -170.5t143.5 -75.5z" />
    <glyph glyph-name="uni20B9" unicode="&#x20b9;" horiz-adv-x="449" 
d="M244 0l-82 194q-14 35 -36 49.5t-76 14.5v57h49q45 0 80 10.5t56 37t22 74.5h-206v57h204q-9 49 -46.5 70.5t-93.5 21.5h-65v58h349v-58h-122q49 -29 59 -92h63v-57h-61q-2 -72 -43 -111t-112 -52q19 -11 29 -20.5t17 -21.5t15 -32l84 -200h-84z" />
    <glyph glyph-name="uni20BA" unicode="&#x20ba;" horiz-adv-x="579" 
d="M142 0v302l-92 -30v59l92 30v74l-92 -30v59l92 30v150h82v-124l195 65v-59l-195 -64v-75l195 65v-59l-195 -64v-265q116 2 169.5 59.5t53.5 171.5v31h82v-35q0 -142 -82 -216.5t-238 -74.5h-67z" />
    <glyph glyph-name="uni20BD" unicode="&#x20bd;" horiz-adv-x="638" 
d="M111 0v108h-61v64h61v75h-61v64h61v333h267q108 0 159 -54t51 -146q0 -94 -58.5 -145.5t-157.5 -51.5h-179v-75h135v-64h-135v-108h-82zM193 311h168q145 0 145 130q0 138 -140 138h-173v-268z" />
    <glyph glyph-name="uni210A" unicode="&#x210a;" horiz-adv-x="575" 
d="M273 -176q-16 0 -39 1.5t-45 3.5t-35 5v70q22 -7 53.5 -9.5t51.5 -2.5q74 0 119 24.5t45 81.5v47q-65 -45 -158 -45q-100 0 -157.5 56.5t-57.5 184.5q0 129 57 186t157 57q53 0 92.5 -14.5t72.5 -45.5l6 50h70v-465q0 -83 -61 -134t-171 -51zM287 66q43 0 77 12.5
t59 34.5v248q-27 29 -62 43t-76 14q-83 0 -118 -42t-35 -135q0 -97 38 -136t117 -39z" />
    <glyph glyph-name="uni2113" unicode="&#x2113;" horiz-adv-x="394" 
d="M239 -10q-51 0 -79.5 20t-40.5 55t-12 79v177q-13 -5 -33 -12.5t-44 -13.5v65q44 10 77 29v186q0 86 30 130.5t103 44.5q44 0 71 -20.5t39.5 -54t12.5 -74.5q0 -63 -23 -109t-62.5 -80t-90.5 -63v-219q0 -37 12.5 -58t43.5 -21q33 0 45.5 18t12.5 57h63q0 -38 -10 -69
t-37 -49t-78 -18zM178 420q61 37 90 77.5t29 98.5q0 35 -12 62.5t-47 27.5q-34 0 -47 -23.5t-13 -68.5v-174z" />
    <glyph glyph-name="uni2117" unicode="&#x2117;" horiz-adv-x="764" 
d="M382 -10q-69 0 -129 26t-105.5 71.5t-71.5 105.5t-26 129t26 129t71.5 105.5t105.5 71.5t129 26t129 -26t105.5 -71.5t71.5 -105.5t26 -129t-26 -129t-71.5 -105.5t-105.5 -71.5t-129 -26zM382 50q78 0 139 35t96 96.5t35 140.5t-35 140t-96 96t-139 35q-77 0 -138 -35
t-96 -96t-35 -140t35 -140.5t96 -96.5t138 -35zM245 105v429h198q68 0 106 -36.5t38 -95.5q0 -39 -17.5 -72t-49.5 -53t-77 -20h-136v-152h-62zM307 312h111q51 0 79.5 18t28.5 72q0 47 -22.5 62t-68.5 15h-128v-167z" />
    <glyph glyph-name="uni2120" unicode="&#x2120;" horiz-adv-x="646" 
d="M151 360q-28 0 -52 3.5t-41 8.5v46q20 -7 42 -10.5t44 -3.5q31 0 47.5 7t16.5 28q0 20 -15 28t-51 21q-44 16 -68 33.5t-24 54.5q0 38 26.5 58t84.5 20q22 0 44 -3t38 -8v-46q-36 12 -71 12q-34 0 -50 -7.5t-16 -25.5q0 -17 14 -26t50 -21q39 -13 66 -31t27 -59
q0 -45 -33.5 -62t-78.5 -17zM294 362v282h57l95 -181l94 181h56v-282h-57v188l-81 -167h-24l-83 167v-188h-57z" />
    <glyph glyph-name="trademark" unicode="&#x2122;" horiz-adv-x="682" 
d="M330 362v282h57l95 -181l94 181h56v-282h-57v188l-81 -167h-24l-83 167v-188h-57zM149 362v229h-99v53h256v-53h-98v-229h-59z" />
    <glyph glyph-name="uni2126" unicode="&#x2126;" horiz-adv-x="769" 
d="M57 0v64h159q-73 46 -119.5 120.5t-46.5 178.5q0 95 40 170t115 118.5t180 43.5t179.5 -43.5t114.5 -118.5t40 -170q0 -104 -45.5 -179t-119.5 -120h158v-64h-263v65q95 52 141.5 127.5t46.5 170.5q0 78 -31.5 137t-88 92t-132.5 33q-75 0 -132 -33t-89 -92t-32 -137
q0 -95 47 -170.5t142 -127.5v-65h-264z" />
    <glyph glyph-name="estimated" unicode="&#x212e;" horiz-adv-x="783" 
d="M403 -12q-74 0 -138.5 26t-112.5 72t-75 107.5t-27 132.5q0 83 27.5 146t75.5 106t109.5 64.5t129.5 21.5t129 -23t109 -66t75.5 -102t27.5 -130v-17h-542v-223q27 -35 86 -59.5t126 -24.5q60 0 104.5 11t80.5 38t70 74h37q-55 -88 -124.5 -121t-167.5 -33zM191 357h403
v206q-29 30 -81.5 50.5t-120.5 20.5q-128 0 -201 -70v-207z" />
    <glyph glyph-name="uni2153" unicode="&#x2153;" horiz-adv-x="639" 
d="M124 370v228l-74 -16v46l132 26v-284h-58zM100 0l342 644h77l-342 -644h-77zM469 -9q-22 0 -46 3.5t-37 8.5v45q33 -13 71 -13q39 0 55 9.5t16 32.5q0 41 -65 41h-37l3 41h31q32 0 47 10t15 33q0 20 -15.5 28t-48.5 8q-17 0 -34.5 -3.5t-32.5 -8.5v45q13 5 35.5 8.5
t44.5 3.5q62 0 87 -21.5t25 -56.5q0 -22 -10.5 -40.5t-34.5 -26.5q28 -6 39.5 -23t11.5 -40q0 -84 -120 -84z" />
    <glyph glyph-name="uni2154" unicode="&#x2154;" horiz-adv-x="647" 
d="M50 370v32q14 24 34 43.5t45 39.5q35 29 47.5 46.5t12.5 37.5q0 21 -13 29.5t-45 8.5q-17 0 -36 -4t-36 -10v47q14 5 38 9.5t50 4.5q49 0 75 -25t26 -60q0 -30 -13.5 -48.5t-43.5 -46.5q-18 -17 -32.5 -28t-28.5 -29h120v-47h-200zM108 0l342 644h78l-343 -644h-77z
M477 -9q-22 0 -46 3.5t-37 8.5v45q33 -13 71 -13q39 0 55 9.5t16 32.5q0 41 -65 41h-37l3 41h31q32 0 47 10t15 33q0 20 -15.5 28t-48.5 8q-17 0 -34.5 -3.5t-32.5 -8.5v45q13 5 35.5 8.5t44.5 3.5q62 0 87 -21.5t25 -56.5q0 -22 -10.5 -40.5t-34.5 -26.5q28 -6 39.5 -23
t11.5 -40q0 -84 -120 -84z" />
    <glyph glyph-name="oneeighth" unicode="&#x215b;" horiz-adv-x="645" 
d="M124 370v228l-74 -16v46l132 26v-284h-58zM100 0l342 644h77l-342 -644h-77zM480 -10q-51 0 -83.5 20.5t-32.5 58.5q0 51 50 70q-24 11 -33 27.5t-9 37.5q0 35 29 56.5t79 21.5t78.5 -21.5t28.5 -56.5q0 -21 -8.5 -38t-35.5 -30q30 -10 41 -27t11 -40q0 -38 -32 -58.5
t-83 -20.5zM491 155q26 8 34 17.5t8 30.5q0 20 -14.5 29.5t-38.5 9.5q-25 0 -39.5 -9.5t-14.5 -29.5q0 -16 7.5 -26.5t27.5 -15.5zM480 29q28 0 44 10.5t16 30.5q0 18 -9.5 27t-35.5 15l-30 7q-22 -7 -33.5 -16t-11.5 -32q0 -42 60 -42z" />
    </font>
</defs>
</svg>
