<?xml version="1.0" standalone="no"?>
<!DOCTYPE svg PUBLIC "-//W3C//DTD SVG 1.1//EN" "http://www.w3.org/Graphics/SVG/1.1/DTD/svg11.dtd" >
<svg xmlns="http://www.w3.org/2000/svg" xmlns:xlink="http://www.w3.org/1999/xlink" version="1.1">
<metadata>
Created by FontForge 20170731 at Tue May 24 20:51:59 2016
 By Aleksey,,,
Copyright (c) 2015, Cadson Demak (info@cadsondemak.com)
</metadata>
<defs>
<font id="Prompt-Regular" horiz-adv-x="0" >
  <font-face 
    font-family="Prompt"
    font-weight="400"
    font-stretch="normal"
    units-per-em="1000"
    panose-1="0 0 5 0 0 0 0 0 0 0"
    ascent="750"
    descent="-250"
    x-height="480"
    cap-height="699"
    bbox="-607 -368 1244 1061"
    underline-thickness="50"
    underline-position="-150"
    unicode-range="U+000D-FB02"
  />
<missing-glyph horiz-adv-x="504" 
d="M45 714h414v-714h-414v714zM403 53v607h-302v-607h302z" />
    <glyph glyph-name="fi" unicode="fi" horiz-adv-x="597" 
d="M98 402h-73v78h73v91q0 83 53 128t132 45q40 0 78 -12v-82q-28 11 -58 11q-51 0 -77.5 -24.5t-26.5 -71.5v-85h324v-480h-101v402h-223v-402h-101v402zM429 591q-17 17 -17 42t17.5 42t42.5 17t42.5 -17t17.5 -42t-17.5 -42t-42.5 -17q-26 0 -43 17z" />
    <glyph glyph-name="fl" unicode="fl" horiz-adv-x="590" 
d="M98 402h-73v78h73v94q0 82 52.5 126t132.5 44q40 0 78 -12v-82q-28 11 -57 11q-50 0 -77.5 -23.5t-27.5 -69.5v-88h224v218h102v-698h-102v402h-224v-402h-101v402z" />
    <glyph glyph-name="ru_lakkhangyaothai" unicode="&#xe24;&#xe45;" horiz-adv-x="877" 
d="M473 335q0 69 -36.5 101.5t-109.5 32.5q-56 0 -97 -16t-76 -53l43 -67v-198q0 -28 11.5 -39t38.5 -11h56v-85h-106q-50 0 -76 28t-26 77v228l-50 81q53 67 121 101.5t161 34.5q86 0 144 -29q24 12 62.5 20.5t76.5 8.5q101 0 151.5 -54.5t50.5 -156.5v-535h-102v542
q0 64 -26 93.5t-92 29.5q-25 0 -52 -5q35 -49 35 -121v-539h-102v531z" />
    <glyph glyph-name="lu_lakkhangyaothai" unicode="&#xe26;&#xe45;" horiz-adv-x="895" 
d="M492 335q0 69 -37 101.5t-109 32.5q-55 0 -95.5 -15.5t-74.5 -50.5l60 -69v-229q0 -49 -26.5 -77t-76.5 -28h-88v85h42q27 0 37 10.5t10 39.5v198l-70 81q51 66 120 101t163 35q85 0 143 -29q24 12 62.5 20.5t76.5 8.5q101 0 151 -54.5t50 -156.5v-535h-102v542
q0 64 -26 93.5t-92 29.5q-24 0 -51 -5q35 -49 35 -121v-539h-102v531z" />
    <glyph glyph-name=".notdef" horiz-adv-x="504" 
d="M45 714h414v-714h-414v714zM403 53v607h-302v-607h302z" />
    <glyph glyph-name=".null" horiz-adv-x="500" 
 />
    <glyph glyph-name="nonmarkingreturn" unicode="&#xd;" horiz-adv-x="260" 
 />
    <glyph glyph-name="space" unicode=" " horiz-adv-x="370" 
 />
    <glyph glyph-name="exclam" unicode="!" horiz-adv-x="209" 
d="M56 699h98v-499h-98v499zM62 2q-17 17 -17 42t17 42t42 17t42.5 -17t17.5 -42t-17.5 -42t-42.5 -17t-42 17z" />
    <glyph glyph-name="quotedbl" unicode="&#x22;" horiz-adv-x="338" 
d="M45 699h86v-187h-86v187zM207 699h86v-187h-86v187z" />
    <glyph glyph-name="numbersign" unicode="#" horiz-adv-x="763" 
d="M141 170h-96v80h118l52 182h-129v80h151l53 187h90l-53 -187h211l53 187h91l-53 -187h89v-80h-111l-52 -182h122v-80h-144l-48 -170h-91l48 170h-211l-48 -170h-90zM464 250l52 182h-211l-52 -182h211z" />
    <glyph glyph-name="dollar" unicode="$" horiz-adv-x="561" 
d="M241 -15q-56 1 -108.5 11.5t-87.5 27.5v91q90 -43 196 -45v248q-2 0 -3 1q-99 40 -143 87.5t-44 120.5q0 74 51.5 123.5t138.5 60.5v91h88v-89q81 -6 153 -37v-88q-77 35 -153 39v-244q67 -27 106.5 -53t60 -62.5t20.5 -91.5q0 -78 -47 -125.5t-140 -60.5v-93h-88v88z
M241 620q-41 -11 -62.5 -34.5t-21.5 -58.5q0 -36 19.5 -59.5t64.5 -46.5v199zM409 176q0 37 -18.5 60t-61.5 44v-201q80 22 80 97z" />
    <glyph glyph-name="percent" unicode="%" horiz-adv-x="885" 
d="M139 371.5q-42 24.5 -66.5 66.5t-24.5 92t24.5 92.5t66.5 67t92 24.5t92.5 -24.5t67 -67t24.5 -92.5t-24.5 -92t-67 -66.5t-92.5 -24.5t-92 24.5zM588 699h99l-387 -699h-99zM307.5 452q30.5 31 30.5 76q0 46 -30.5 77t-76.5 31t-76.5 -31t-30.5 -77q0 -45 30.5 -76
t76.5 -31t76.5 31zM564 9.5q-42 24.5 -66.5 66.5t-24.5 92t24.5 92.5t66.5 67t92 24.5t92.5 -24.5t67 -67t24.5 -92.5t-24.5 -92t-67 -66.5t-92.5 -24.5t-92 24.5zM732 90q31 31 31 76q0 46 -31 77t-77 31q-45 0 -76 -31t-31 -77q0 -45 31 -76t76 -31q46 0 77 31z" />
    <glyph glyph-name="ampersand" unicode="&#x26;" horiz-adv-x="773" 
d="M115 34.5q-70 49.5 -70 139.5q0 67 37.5 115t120.5 95q-50 46 -73 83.5t-23 83.5q0 74 50.5 118.5t134.5 44.5q53 0 94.5 -21.5t64.5 -58.5t23 -83q0 -55 -29.5 -94t-101.5 -86l190 -180q18 29 24.5 68.5t6.5 96.5h89q0 -77 -12 -128.5t-42 -100.5l134 -127h-122l-71 68
q-45 -43 -105 -63t-138 -20q-112 0 -182 49.5zM361 482.5q24 27.5 24 64.5q0 41 -25 65.5t-68 24.5q-44 0 -69 -24t-25 -66q0 -32 19 -58t64 -68q56 34 80 61.5zM401 77.5q46 17.5 77 49.5l-208 201q-67 -33 -97 -68.5t-30 -85.5q0 -55 43.5 -84.5t111.5 -29.5
q57 0 103 17.5z" />
    <glyph glyph-name="quotesingle" unicode="'" horiz-adv-x="176" 
d="M45 699h86v-187h-86v187z" />
    <glyph glyph-name="parenleft" unicode="(" horiz-adv-x="330" 
d="M83 26q-38 112 -38 244q0 131 38 243.5t110 200.5h107q-76 -97 -114 -206t-38 -238t38 -238t114 -206h-107q-72 88 -110 200z" />
    <glyph glyph-name="parenright" unicode=")" horiz-adv-x="330" 
d="M144 32q38 109 38 238t-38 238t-114 206h107q72 -88 110 -200.5t38 -243.5q0 -132 -38 -244t-110 -200h-107q76 97 114 206z" />
    <glyph glyph-name="asterisk" unicode="*" horiz-adv-x="436" 
d="M86 419l81 112l-122 44l24 57l113 -42v109h72v-109l112 42l25 -57l-123 -43l82 -112l-56 -36l-76 106l-76 -107z" />
    <glyph glyph-name="plus" unicode="+" horiz-adv-x="409" 
d="M163 256h-118v83h118v118h82v-118h119v-83h-119v-119h-82v119z" />
    <glyph glyph-name="comma" unicode="," horiz-adv-x="277" 
d="M126 53h106l-95 -201h-92z" />
    <glyph glyph-name="hyphen" unicode="-" horiz-adv-x="409" 
d="M45 339h319v-83h-319v83z" />
    <glyph glyph-name="period" unicode="." horiz-adv-x="185" 
d="M58.5 13.5q-13.5 13.5 -13.5 33.5t13.5 34t33.5 14t34 -14t14 -34t-14 -33.5t-34 -13.5t-33.5 13.5z" />
    <glyph glyph-name="slash" unicode="/" horiz-adv-x="477" 
d="M330 714h102l-285 -714h-102z" />
    <glyph glyph-name="zero" unicode="0" horiz-adv-x="672" 
d="M180.5 29q-65.5 44 -100.5 126t-35 194t34.5 194.5t100 126.5t156.5 44t156.5 -44t100 -126.5t34.5 -194.5t-35 -194t-100.5 -126t-155.5 -44t-155.5 44zM475.5 148.5q50.5 73.5 50.5 199.5t-50 200t-140 74t-140 -74t-50 -200t50.5 -199.5t139.5 -73.5t139.5 73.5z" />
    <glyph glyph-name="one" unicode="1" horiz-adv-x="363" 
d="M196 589l-151 -109v97l165 122h88v-699h-102v589z" />
    <glyph glyph-name="two" unicode="2" horiz-adv-x="581" 
d="M45 67l151 145q20 20 56 52q57 52 87 84t49 68.5t19 78.5q0 62 -36 94.5t-105 32.5q-47 0 -96.5 -17t-92.5 -50v98q84 61 205 61q108 0 168 -57.5t60 -156.5q0 -48 -20.5 -92t-57.5 -86.5t-100 -103.5l-136 -133h340v-85h-491v67z" />
    <glyph glyph-name="three" unicode="3" horiz-adv-x="574" 
d="M141.5 -5.5q-55.5 9.5 -96.5 28.5v84q93 -42 200 -42q92 0 136.5 33.5t44.5 95.5q0 64 -46 91.5t-140 27.5h-82v82h80q75 0 121 30.5t46 89.5q0 58 -38 88t-110 30q-56 0 -101 -13t-93 -43v84q88 53 206 53q117 0 178 -52t61 -144q0 -56 -30 -98t-90 -65
q68 -16 104.5 -58t36.5 -106q0 -95 -65 -150.5t-206 -55.5q-61 0 -116.5 9.5z" />
    <glyph glyph-name="four" unicode="4" horiz-adv-x="601" 
d="M365 172h-340v65l339 462h104v-447h108v-80h-108v-172h-103v172zM377 252v325l-237 -325h237z" />
    <glyph glyph-name="five" unicode="5" horiz-adv-x="570" 
d="M133 -3.5q-52 11.5 -88 31.5v91q41 -25 93 -38.5t99 -13.5q91 0 138 38.5t47 113.5q0 71 -43.5 108.5t-129.5 37.5q-36 0 -75.5 -7t-70.5 -19l-45 26l26 334h391v-86h-298l-15 -180q62 13 126 13q111 0 174 -62t63 -165q0 -113 -71 -173.5t-214 -60.5q-55 0 -107 11.5z
" />
    <glyph glyph-name="six" unicode="6" horiz-adv-x="609" 
d="M173.5 19.5q-59.5 34.5 -94 102t-34.5 162.5q0 208 85.5 319t245.5 111q55 0 98 -12v-86q-35 15 -90 15q-214 0 -235 -257q30 38 79.5 57.5t108.5 19.5q68 0 119 -28t79.5 -80t28.5 -121q0 -68 -30.5 -122t-88.5 -84.5t-137 -30.5q-75 0 -134.5 34.5zM420.5 106.5
q42.5 42.5 42.5 112.5t-42.5 111t-112.5 41q-43 0 -78.5 -19t-56 -54t-20.5 -81q0 -41 19.5 -76t54.5 -56t81 -21q70 0 112.5 42.5z" />
    <glyph glyph-name="seven" unicode="7" horiz-adv-x="545" 
d="M406 613h-371v86h475v-75l-281 -624h-100z" />
    <glyph glyph-name="eight" unicode="8" horiz-adv-x="602" 
d="M114 38.5q-69 53.5 -69 152.5q0 67 35 112.5t93 61.5q-48 20 -76 61.5t-28 96.5q0 88 63 139.5t169 51.5q105 0 168 -51.5t63 -139.5q0 -55 -28 -96.5t-76 -61.5q58 -16 93.5 -61.5t35.5 -112.5q0 -99 -69 -152.5t-187 -53.5t-187 53.5zM397 428.5q37 32.5 37 85.5
q0 54 -36.5 88t-96.5 34t-96.5 -34t-36.5 -88q0 -53 37 -85.5t96 -32.5t96 32.5zM414 96q41 37 41 102q0 62 -42.5 98t-111.5 36t-112 -36t-43 -98q0 -65 41.5 -102t113.5 -37t113 37z" />
    <glyph glyph-name="nine" unicode="9" horiz-adv-x="609" 
d="M135 -3v85q39 -15 90 -15q215 0 236 257q-30 -38 -78.5 -57t-108.5 -19q-67 0 -119 28t-81 80t-29 121q0 68 30.5 122t88.5 84.5t137 30.5q76 0 135.5 -34t93.5 -101.5t34 -163.5q0 -208 -85.5 -319t-245.5 -111q-55 0 -98 12zM411.5 370q44.5 42 44.5 111q0 41 -19.5 76
t-54.5 56t-81 21q-70 0 -112.5 -42t-42.5 -112t42.5 -111t112.5 -41q66 0 110.5 42z" />
    <glyph glyph-name="colon" unicode=":" horiz-adv-x="200" 
d="M61 387q-16 16 -16 39t16 39.5t39 16.5t39 -16.5t16 -39.5q0 -22 -16 -38.5t-39 -16.5t-39 16zM61 36q-16 16 -16 39t16 39.5t39 16.5t39 -16.5t16 -39.5q0 -22 -16 -38.5t-39 -16.5t-39 16z" />
    <glyph glyph-name="semicolon" unicode=";" horiz-adv-x="277" 
d="M134 387q-16 16 -16 39t16 39.5t39 16.5t39 -16.5t16 -39.5q0 -22 -16 -38.5t-39 -16.5t-39 16zM126 53h106l-95 -201h-92z" />
    <glyph glyph-name="less" unicode="&#x3c;" horiz-adv-x="544" 
d="M45 287v73l454 223v-102l-329 -158l329 -158v-101z" />
    <glyph glyph-name="equal" unicode="=" horiz-adv-x="524" 
d="M45 454h434v-82h-434v82zM45 258h434v-81h-434v81z" />
    <glyph glyph-name="greater" unicode="&#x3e;" horiz-adv-x="544" 
d="M45 165l328 158l-328 158v102l454 -223v-73l-454 -223v101z" />
    <glyph glyph-name="question" unicode="?" horiz-adv-x="515" 
d="M166 220q0 61 23 102t78 79q40 28 60 44.5t31.5 37t11.5 48.5q0 45 -36 71t-104 26q-100 0 -185 -40v88q40 17 87.5 27.5t97.5 10.5q110 0 175 -49t65 -134q0 -52 -27 -89t-85 -79q-42 -30 -60 -47.5t-26 -39t-8 -57.5v-20h-98v21zM172 2q-17 17 -17 42t17 42t42 17
t42.5 -17t17.5 -42t-17.5 -42t-42.5 -17t-42 17z" />
    <glyph glyph-name="at" unicode="@" horiz-adv-x="910" 
d="M237 -35q-91 41 -141.5 121.5t-50.5 195.5q0 126 53.5 224.5t153 153t230.5 54.5q181 0 282 -89.5t101 -253.5q0 -113 -46.5 -187.5t-131.5 -74.5q-37 0 -68.5 19.5t-41.5 52.5q-23 -35 -61.5 -53.5t-86.5 -18.5q-77 0 -124.5 45.5t-47.5 131.5q0 67 27.5 121t78.5 85.5
t119 31.5q40 0 81.5 -8.5t72.5 -23.5l-13 -232q-2 -38 15 -58.5t47 -20.5q48 0 68 49.5t20 140.5q0 133 -72 198.5t-219 65.5q-104 0 -182 -42.5t-120.5 -122.5t-42.5 -188q0 -137 80 -209t233 -72q104 0 190 29v-74q-83 -32 -190 -32q-122 0 -213 41zM515 210.5
q27 27.5 29 66.5l10 160q-30 13 -74 13q-59 0 -95 -44t-36 -113q0 -54 23 -82t67 -28q49 0 76 27.5z" />
    <glyph glyph-name="A" unicode="A" horiz-adv-x="746" 
d="M324 699h98l279 -699h-104l-70 174h-309l-68 -174h-105zM499 259l-126 327l-126 -327h252z" />
    <glyph glyph-name="B" unicode="B" horiz-adv-x="649" 
d="M65 699h321q93 0 144 -48t51 -140q0 -52 -24.5 -91.5t-64.5 -58.5q112 -33 112 -163q0 -61 -26.5 -105.5t-72.5 -68.5t-102 -24h-338v699zM373 399q49 0 77 27t28 80q0 61 -27.5 85.5t-84.5 24.5h-199v-217h206zM380 83q59 0 90 26t31 89t-32.5 90t-97.5 27h-204v-232
h213z" />
    <glyph glyph-name="C" unicode="C" horiz-adv-x="710" 
d="M223 30q-84 45 -131 127.5t-47 191.5t47 192t131 128t192 45q144 0 241 -73v-98q-87 77 -232 77q-81 0 -143.5 -33t-97.5 -94.5t-35 -143.5t35.5 -144t98 -95t142.5 -33q74 0 132.5 19.5t108.5 62.5v-99q-90 -75 -250 -75q-108 0 -192 45z" />
    <glyph glyph-name="D" unicode="D" horiz-adv-x="703" 
d="M65 699h225q113 0 196 -42t127.5 -120t44.5 -184q0 -174 -100.5 -263.5t-281.5 -89.5h-211v699zM275 85q140 0 210 69t70 199q0 120 -68.5 190t-195.5 70h-124v-528h108z" />
    <glyph glyph-name="E" unicode="E" horiz-adv-x="566" 
d="M65 699h461v-86h-359v-221h268v-85h-268v-222h359v-85h-461v699z" />
    <glyph glyph-name="F" unicode="F" horiz-adv-x="551" 
d="M65 699h461v-86h-359v-223h268v-81h-268v-309h-102v699z" />
    <glyph glyph-name="G" unicode="G" horiz-adv-x="716" 
d="M223 30q-84 45 -131 127.5t-47 191.5t47 192t131 128t192 45q145 0 241 -72v-98q-87 76 -232 76q-79 0 -142 -33t-98.5 -94.5t-35.5 -143.5t35 -144t97 -95t140 -33q91 0 149 37v183h-133v83h235v-320q-47 -39 -110.5 -57t-145.5 -18q-108 0 -192 45z" />
    <glyph glyph-name="H" unicode="H" horiz-adv-x="699" 
d="M65 699h102v-300h365v300h102v-699h-102v313h-365v-313h-102v699z" />
    <glyph glyph-name="I" unicode="I" horiz-adv-x="233" 
d="M65 699h103v-699h-103v699z" />
    <glyph glyph-name="J" unicode="J" horiz-adv-x="373" 
d="M72 -10q-31 5 -47 12v87q15 -6 38.5 -10t44.5 -4q103 0 103 100v524h102v-531q0 -86 -49 -134.5t-133 -48.5q-28 0 -59 5z" />
    <glyph glyph-name="K" unicode="K" horiz-adv-x="670" 
d="M65 699h102v-699h-102v699zM172 356l319 343h124l-319 -343l339 -356h-124z" />
    <glyph glyph-name="L" unicode="L" horiz-adv-x="546" 
d="M65 699h102v-614h354v-85h-456v699z" />
    <glyph glyph-name="M" unicode="M" horiz-adv-x="832" 
d="M65 699h102l249 -545l249 545h102v-699h-99v497l-227 -497h-50l-228 497v-497h-98v699z" />
    <glyph glyph-name="N" unicode="N" horiz-adv-x="686" 
d="M65 699h97l356 -527v527h103v-699h-98l-356 527v-527h-102v699z" />
    <glyph glyph-name="O" unicode="O" horiz-adv-x="826" 
d="M225 30.5q-84 45.5 -132 128.5t-48 190t48 190t132 129t188 46t188 -46t132 -129t48 -190t-48 -190t-132 -128.5t-188 -45.5t-188 45.5zM547.5 110.5q60.5 33.5 95.5 95t35 143.5q0 81 -34.5 142.5t-94.5 95t-134 33.5q-75 0 -135.5 -33t-96 -95t-35.5 -143
q0 -82 35 -143.5t95.5 -95t134.5 -33.5t134.5 33.5z" />
    <glyph glyph-name="P" unicode="P" horiz-adv-x="603" 
d="M65 699h269q113 0 178.5 -56.5t65.5 -160.5q0 -106 -65 -160.5t-179 -54.5h-167v-267h-102v699zM323 352q70 0 111 29t41 101t-41 101.5t-111 29.5h-156v-261h156z" />
    <glyph glyph-name="Q" unicode="Q" horiz-adv-x="817" 
d="M229.5 43q-87.5 43 -136 122.5t-48.5 185.5q0 107 48 189.5t132 128t188 45.5t188 -45.5t132 -128t48 -189.5q0 -85 -38.5 -155.5t-101.5 -107.5h151v-88h-361q-114 0 -201.5 43zM550 123q60 30 93.5 88.5t33.5 139.5q0 80 -35 141.5t-95 94.5t-134 33t-134.5 -33
t-95.5 -94t-35 -142q0 -82 33.5 -140t93.5 -88t138 -30q77 0 137 30z" />
    <glyph glyph-name="R" unicode="R" horiz-adv-x="623" 
d="M65 699h281q112 0 172 -54t60 -158q0 -77 -41 -130.5t-116 -72.5l154 -284h-106l-149 276h-153v-276h-102v699zM329 362q67 0 106.5 31.5t39.5 93.5q0 68 -38.5 97t-107.5 29h-162v-251h162z" />
    <glyph glyph-name="S" unicode="S" horiz-adv-x="561" 
d="M140.5 -4.5q-58.5 10.5 -95.5 28.5v92q96 -45 207 -45q156 0 156 105q0 36 -17 58t-49 38.5t-104 45.5q-99 40 -143 88t-44 121q0 55 30 97.5t84 66t124 23.5q57 0 103 -9t90 -29v-88q-87 39 -176 39q-72 0 -110 -26t-38 -74q0 -33 16.5 -55.5t49 -40t96.5 -43.5
q71 -29 112 -55t62.5 -63.5t21.5 -93.5q0 -91 -65 -141t-192 -50q-60 0 -118.5 10.5z" />
    <glyph glyph-name="T" unicode="T" horiz-adv-x="587" 
d="M242 613h-217v86h537v-86h-217v-613h-103v613z" />
    <glyph glyph-name="U" unicode="U" horiz-adv-x="697" 
d="M133 58.5q-73 73.5 -73 202.5v438h102v-442q0 -89 50 -134.5t137 -45.5q86 0 136 45.5t50 134.5v442h102v-438q0 -128 -73 -202t-215 -74q-143 0 -216 73.5z" />
    <glyph glyph-name="V" unicode="V" horiz-adv-x="746" 
d="M45 699h108l220 -560l220 560h108l-279 -699h-98z" />
    <glyph glyph-name="W" unicode="W" horiz-adv-x="1001" 
d="M45 699h106l156 -531l154 531h80l153 -531l156 531h106l-204 -699h-97l-155 528l-154 -528h-97z" />
    <glyph glyph-name="X" unicode="X" horiz-adv-x="732" 
d="M307 355l-252 344h117l194 -264l194 264h117l-253 -344l262 -355h-117l-203 276l-203 -276h-117z" />
    <glyph glyph-name="Y" unicode="Y" horiz-adv-x="700" 
d="M299 265l-254 434h109l195 -337l198 337h108l-257 -434v-265h-99v265z" />
    <glyph glyph-name="Z" unicode="Z" horiz-adv-x="618" 
d="M45 69l387 544h-378v86h502v-70l-386 -544h403v-85h-528v69z" />
    <glyph glyph-name="bracketleft" unicode="[" horiz-adv-x="305" 
d="M45 787h225v-86h-123v-712h123v-85h-225v883z" />
    <glyph glyph-name="backslash" unicode="\" horiz-adv-x="474" 
d="M45 714h99l285 -714h-99z" />
    <glyph glyph-name="bracketright" unicode="]" horiz-adv-x="305" 
d="M35 -11h122v712h-122v86h225v-883h-225v85z" />
    <glyph glyph-name="asciicircum" unicode="^" horiz-adv-x="548" 
d="M234 719h80l189 -329h-98l-131 232l-132 -232h-97z" />
    <glyph glyph-name="underscore" unicode="_" horiz-adv-x="487" 
d="M45 0h397v-88h-397v88z" />
    <glyph glyph-name="grave" unicode="`" horiz-adv-x="265" 
d="M45 742h107l68 -172h-92z" />
    <glyph glyph-name="a" unicode="a" horiz-adv-x="569" 
d="M97.5 29.5q-52.5 44.5 -52.5 120.5q0 80 50.5 123.5t143.5 43.5q99 0 168 -40v25q0 57 -34.5 84.5t-108.5 27.5q-44 0 -85.5 -8.5t-74.5 -23.5v82q30 14 78 22.5t93 8.5q119 0 176.5 -52.5t57.5 -145.5v-297h-95v54q-31 -34 -73.5 -51.5t-103.5 -17.5q-87 0 -139.5 44.5z
M349 81q39 19 58 53v65q-65 42 -145 42q-58 0 -86.5 -22.5t-28.5 -68.5q0 -88 115 -88q48 0 87 19z" />
    <glyph glyph-name="b" unicode="b" horiz-adv-x="660" 
d="M250.5 5.5q-47.5 20.5 -87.5 64.5v-70h-98v739h101v-323q33 39 85 59t112 20q72 0 129.5 -32.5t90 -90.5t32.5 -133q0 -76 -32.5 -133.5t-90 -89t-129.5 -31.5q-65 0 -112.5 20.5zM428.5 86.5q39.5 21.5 62 61.5t22.5 91t-22.5 91t-62 62t-88.5 22q-61 0 -109 -33
t-65 -88v-108q19 -55 65.5 -87.5t108.5 -32.5q49 0 88.5 21.5z" />
    <glyph glyph-name="c" unicode="c" horiz-adv-x="547" 
d="M176 15q-62 30 -96.5 87.5t-34.5 136.5t34.5 136.5t97 88.5t143.5 31q110 0 176 -43v-83q-65 45 -166 45q-82 0 -132.5 -44.5t-50.5 -130.5t50 -130t131 -44q101 0 174 48v-82q-35 -24 -79.5 -35t-104.5 -11q-80 0 -142 30z" />
    <glyph glyph-name="d" unicode="d" horiz-adv-x="660" 
d="M167.5 16.5q-57.5 31.5 -90 89t-32.5 133.5q0 75 32.5 133t90 90.5t129.5 32.5q130 0 197 -79v323h101v-739h-98v70q-40 -44 -87.5 -64.5t-112.5 -20.5q-72 0 -129.5 31.5zM428.5 97.5q46.5 32.5 65.5 87.5v108q-17 55 -64.5 88t-109.5 33q-49 0 -88.5 -22t-62 -62
t-22.5 -91t22.5 -91t62 -61.5t88.5 -21.5q62 0 108.5 32.5z" />
    <glyph glyph-name="e" unicode="e" horiz-adv-x="608" 
d="M120.5 51.5q-75.5 66.5 -75.5 187.5q0 118 67.5 187t192.5 69q83 0 141 -31.5t87.5 -87t29.5 -126.5v-50h-422q5 -68 57.5 -101.5t142.5 -33.5q46 0 93 8.5t83 22.5v-81q-32 -13 -84.5 -21.5t-103.5 -8.5q-133 0 -208.5 66.5zM468 271q-2 68 -44.5 105.5t-120.5 37.5
q-76 0 -118 -39t-44 -104h327z" />
    <glyph glyph-name="f" unicode="f" horiz-adv-x="353" 
d="M98 402h-73v78h73v94q0 83 47 126.5t126 43.5q41 0 77 -12v-84q-28 13 -58 13q-47 0 -69 -22.5t-22 -70.5v-88h120v-78h-120v-402h-101v402z" />
    <glyph glyph-name="g" unicode="g" horiz-adv-x="660" 
d="M220.5 -222q-46.5 8 -78.5 23v83q75 -34 174 -34q93 0 135.5 40.5t42.5 122.5v51q-66 -79 -194 -79q-73 0 -131 32t-91 90t-33 133q0 76 32.5 133.5t90 89.5t129.5 32q67 0 113.5 -19.5t86.5 -64.5v69h98v-456q0 -123 -68.5 -188.5t-210.5 -65.5q-49 0 -95.5 8zM429.5 98
q47.5 33 64.5 88v108q-19 56 -65.5 88t-108.5 32q-49 0 -88.5 -21.5t-62 -61.5t-22.5 -91q0 -52 22.5 -91.5t62 -61.5t88.5 -22q62 0 109.5 33z" />
    <glyph glyph-name="h" unicode="h" horiz-adv-x="600" 
d="M65 739h101v-325q69 81 184 81q96 0 143 -51t47 -137v-307h-101v297q0 117 -112 117q-48 0 -89.5 -22.5t-71.5 -68.5v-323h-101v739z" />
    <glyph glyph-name="i" unicode="i" horiz-adv-x="250" 
d="M82 591q-17 17 -17 42t17 42t42 17q26 0 43.5 -17t17.5 -42t-17.5 -42t-43.5 -17q-25 0 -42 17zM73 480h103v-480h-103v480z" />
    <glyph glyph-name="j" unicode="j" horiz-adv-x="250" 
d="M82 591q-17 17 -17 42t17.5 42t42.5 17t42.5 -17t17.5 -42t-17.5 -42t-42.5 -17q-26 0 -43 17zM-70 -220v83q26 -12 60 -12q45 0 64.5 21.5t19.5 69.5v538h102v-545q0 -83 -46 -124.5t-124 -41.5q-45 0 -76 11z" />
    <glyph glyph-name="k" unicode="k" horiz-adv-x="569" 
d="M65 739h101v-739h-101v739zM167 243l221 237h123l-222 -237l245 -243h-123z" />
    <glyph glyph-name="l" unicode="l" horiz-adv-x="231" 
d="M65 739h101v-739h-101v739z" />
    <glyph glyph-name="m" unicode="m" horiz-adv-x="867" 
d="M65 480h96v-69q34 42 77 63t89 21q58 0 92 -19.5t50 -59.5q32 39 78.5 59t93.5 20q88 0 127 -44.5t39 -131.5v-319h-98v306q0 59 -22 83.5t-75 24.5q-76 0 -124 -66q2 -15 2 -49v-299h-98v306q0 59 -20 83.5t-72 24.5q-76 0 -136 -86v-328h-99v480z" />
    <glyph glyph-name="n" unicode="n" horiz-adv-x="600" 
d="M65 480h98v-69q34 43 83.5 63.5t103.5 20.5q96 0 143 -51t47 -137v-307h-101v297q0 117 -112 117q-48 0 -89.5 -22.5t-71.5 -68.5v-323h-101v480z" />
    <glyph glyph-name="o" unicode="o" horiz-adv-x="637" 
d="M175.5 15.5q-61.5 30.5 -96 88t-34.5 135.5q0 77 34 135t96 89.5t143 31.5t143 -31.5t96.5 -89.5t34.5 -135q0 -78 -34.5 -135.5t-96.5 -88t-143 -30.5t-142.5 30.5zM442 113q46 48 46 126q0 81 -46 128t-124 47t-124 -47t-46 -128q0 -78 46 -126t124 -48t124 48z" />
    <glyph glyph-name="p" unicode="p" horiz-adv-x="660" 
d="M65 480h98v-71q74 86 200 86q72 0 129.5 -32t90 -89.5t32.5 -133.5q0 -75 -32.5 -133t-89.5 -90t-130 -32q-60 0 -112 20t-85 59v-283h-101v699zM428.5 86.5q39.5 21.5 62 61.5t22.5 92t-22.5 91.5t-62 61t-88.5 21.5q-61 0 -107.5 -32t-66.5 -88v-108q17 -55 65 -88
t109 -33q49 0 88.5 21.5z" />
    <glyph glyph-name="q" unicode="q" horiz-adv-x="660" 
d="M494 64q-33 -39 -85 -59t-112 -20q-73 0 -130 32t-89.5 90t-32.5 133q0 76 32.5 133.5t90 89.5t129.5 32q126 0 200 -86v71h98v-699h-101v283zM429 98q48 33 65 88v108q-20 56 -66.5 88t-107.5 32q-49 0 -88.5 -21.5t-62 -61t-22.5 -91.5t22.5 -92t62 -61.5t88.5 -21.5
q61 0 109 33z" />
    <glyph glyph-name="r" unicode="r" horiz-adv-x="399" 
d="M65 480h98v-86q30 44 84.5 65t126.5 21v-79q-77 0 -132 -25t-76 -79v-297h-101v480z" />
    <glyph glyph-name="s" unicode="s" horiz-adv-x="489" 
d="M136 -2.5q-56 12.5 -88 33.5v86q39 -23 90 -37.5t99 -14.5q54 0 79 13t25 42q0 22 -11.5 35.5t-39 24.5t-82.5 26q-59 17 -93.5 34.5t-52 44.5t-17.5 70q0 69 54.5 104.5t146.5 35.5q48 0 94 -9t74 -25v-84q-29 17 -71.5 27t-86.5 10q-53 0 -81 -13t-28 -46q0 -21 12 -34
t38.5 -22.5t84.5 -24.5q91 -25 126.5 -59t35.5 -94q0 -62 -51 -99t-151 -37q-50 0 -106 12.5z" />
    <glyph glyph-name="t" unicode="t" horiz-adv-x="374" 
d="M137.5 27q-39.5 42 -39.5 119v256h-73v78h73v144h102v-144h118v-78h-118v-249q0 -48 18.5 -68t67.5 -20q29 0 58 13v-80q-38 -13 -94 -13q-73 0 -112.5 42z" />
    <glyph glyph-name="u" unicode="u" horiz-adv-x="600" 
d="M109.5 37q-49.5 52 -49.5 139v304h101v-300q0 -115 115 -115q101 0 158 91v324h101v-480h-98v68q-34 -43 -80.5 -63t-100.5 -20q-97 0 -146.5 52z" />
    <glyph glyph-name="v" unicode="v" horiz-adv-x="586" 
d="M45 480h107l141 -345l141 345h107l-204 -480h-88z" />
    <glyph glyph-name="w" unicode="w" horiz-adv-x="818" 
d="M45 480h103l108 -356l107 356h91l107 -356l108 356h104l-156 -480h-97l-111 358l-111 -358h-98z" />
    <glyph glyph-name="x" unicode="x" horiz-adv-x="617" 
d="M251 251l-188 229h115l130 -159l131 159h115l-188 -229l206 -251h-114l-150 181l-149 -181h-114z" />
    <glyph glyph-name="y" unicode="y" horiz-adv-x="587" 
d="M77 -187v79q26 -10 64 -10q35 0 55 17.5t36 56.5l23 56l-210 468h104l160 -369l149 369h104l-216 -534q-30 -75 -71.5 -109.5t-107.5 -34.5q-54 0 -90 11z" />
    <glyph glyph-name="z" unicode="z" horiz-adv-x="499" 
d="M45 65l273 337h-267v78h393v-66l-273 -336h283v-78h-409v65z" />
    <glyph glyph-name="braceleft" unicode="{" horiz-adv-x="343" 
d="M142.5 -73q-21.5 24 -21.5 72v226q0 76 -66 76h-20v88h20q66 0 66 76v226q0 48 21.5 72t61.5 24h94v-86h-37q-21 0 -29.5 -10.5t-8.5 -34.5v-204q0 -85 -66 -106v-2q66 -19 66 -106v-204q0 -24 8.5 -34.5t29.5 -10.5h37v-86h-94q-40 0 -61.5 24z" />
    <glyph glyph-name="bar" unicode="|" horiz-adv-x="192" 
d="M45 812h102v-956h-102v956z" />
    <glyph glyph-name="braceright" unicode="}" horiz-adv-x="343" 
d="M45 -11h37q21 0 29.5 10.5t8.5 34.5v204q0 87 66 106v2q-66 21 -66 106v204q0 24 -8.5 34.5t-29.5 10.5h-37v86h94q40 0 61.5 -24t21.5 -72v-226q0 -76 66 -76h20v-88h-20q-66 0 -66 -76v-226q0 -48 -21.5 -72t-61.5 -24h-94v86z" />
    <glyph glyph-name="asciitilde" unicode="~" horiz-adv-x="550" 
d="M336 283q-27 8 -63 23t-62.5 22.5t-53.5 7.5q-35 0 -62.5 -14t-49.5 -46v95q14 25 44 38.5t68 13.5q30 0 57 -8t66 -24q41 -16 63.5 -22.5t48.5 -6.5q35 0 63 14t50 46v-95q-15 -25 -45 -38.5t-68 -13.5q-29 0 -56 8z" />
    <glyph glyph-name="uni00A0" unicode="&#xa0;" horiz-adv-x="370" 
 />
    <glyph glyph-name="exclamdown" unicode="&#xa1;" horiz-adv-x="209" 
d="M62 449q-17 17 -17 42t17 42t42 17t42.5 -17t17.5 -42t-17.5 -42t-42.5 -17t-42 17zM56 332h98v-499h-98v499z" />
    <glyph glyph-name="cent" unicode="&#xa2;" horiz-adv-x="547" 
d="M274 -12q-105 11 -167 77t-62 174q0 106 62 173t167 80v88h89v-87q79 -6 133 -41v-83q-55 38 -133 44v-347q79 7 139 47v-82q-56 -38 -139 -44v-88h-89v89zM274 408q-59 -14 -93 -56.5t-34 -112.5t34 -113t93 -56v338z" />
    <glyph glyph-name="sterling" unicode="&#xa3;" horiz-adv-x="491" 
d="M45 82h80v254h-74v82h74v114q0 86 56 134t140 48q40 0 78 -12v-83q-25 11 -57 11q-55 0 -84 -26t-29 -77v-109h175v-82h-175v-254h217v-82h-401v82z" />
    <glyph glyph-name="currency" unicode="&#xa4;" horiz-adv-x="590" 
d="M45 107l85 63q-33 45 -33 103q0 59 33 104l-85 63l44 55l87 -70q50 41 119 41q68 0 118 -41l88 70l44 -55l-85 -63q33 -47 33 -104q0 -56 -33 -103l85 -63l-44 -55l-88 68q-51 -40 -118 -40t-118 40l-88 -68zM377.5 190q33.5 34 33.5 83t-34 83.5t-82 34.5
q-49 0 -82.5 -34t-33.5 -84q0 -49 33.5 -83t82.5 -34t82.5 34z" />
    <glyph glyph-name="yen" unicode="&#xa5;" horiz-adv-x="701" 
d="M299 105h-138v69h138v73h-138v68h108l-224 384h109l195 -337l198 337h108l-227 -384h110v-68h-139v-73h139v-69h-139v-105h-100v105z" />
    <glyph glyph-name="brokenbar" unicode="&#xa6;" horiz-adv-x="193" 
d="M45 812h103v-383h-103v383zM45 238h103v-382h-103v382z" />
    <glyph glyph-name="section" unicode="&#xa7;" horiz-adv-x="561" 
d="M140.5 -159.5q-58.5 10.5 -95.5 28.5v92q96 -45 207 -45q77 0 115.5 27t38.5 78q0 36 -16 59t-49.5 40t-102.5 44q-98 38 -142.5 86.5t-44.5 121.5q0 43 20 75q-20 33 -20 80q0 55 30 97.5t84 66t124 23.5q57 0 103 -9t90 -29v-89q-44 21 -87 30.5t-92 9.5
q-66 0 -104.5 -28t-38.5 -74q0 -30 16 -52t49.5 -42t94.5 -46q76 -32 115 -56t60 -59.5t21 -93.5q0 -40 -18 -76q18 -36 18 -79q0 -91 -65 -141t-192 -50q-60 0 -118.5 10.5zM433 184q0 33 -17 56t-49.5 40.5t-91.5 40.5q-42 16 -78.5 36t-52.5 39q-6 -16 -6 -36
q0 -42 35 -71.5t114 -60.5q55 -23 89.5 -41t52.5 -38q4 20 4 35z" />
    <glyph glyph-name="dieresis" unicode="&#xa8;" horiz-adv-x="433" 
d="M62.5 602q-17.5 17 -17.5 41t17.5 41t40.5 17t40.5 -17t17.5 -41t-17.5 -41t-40.5 -17t-40.5 17zM289.5 602q-17.5 17 -17.5 41t17.5 41t40.5 17t40.5 -17t17.5 -41t-17.5 -41t-40.5 -17t-40.5 17z" />
    <glyph glyph-name="copyright" unicode="&#xa9;" horiz-adv-x="823" 
d="M226 31q-84 46 -132.5 128.5t-48.5 189.5t48.5 190t132.5 129t186 46t185.5 -46t132 -129t48.5 -190t-48.5 -189.5t-132 -128.5t-185.5 -46t-186 46zM551.5 105q62.5 33 98.5 96t36 148q0 84 -36 147t-98 96.5t-140 33.5q-79 0 -141.5 -33.5t-98 -96t-35.5 -147.5
t36 -148t98.5 -96t140.5 -33q77 0 139.5 33zM290.5 145.5q-52.5 27.5 -82 79.5t-29.5 123t30 123t82.5 79.5t119.5 27.5q101 0 159 -39v-76q-58 41 -149 41q-73 0 -114 -39.5t-41 -116.5t40.5 -116t111.5 -39q93 0 158 44v-76q-64 -43 -167 -43q-66 0 -118.5 27.5z" />
    <glyph glyph-name="ordfeminine" unicode="&#xaa;" horiz-adv-x="423" 
d="M83 380.5q-38 31.5 -38 85.5q0 56 37.5 87.5t102.5 31.5q68 0 118 -28v20q0 40 -24 58t-78 18q-65 0 -114 -22v60q21 10 55.5 16.5t67.5 6.5q85 0 126.5 -37.5t41.5 -103.5v-213h-70v35q-44 -46 -126 -46q-61 0 -99 31.5zM261.5 419q27.5 13 41.5 37v43q-43 29 -103 29
q-40 0 -59.5 -15t-19.5 -47q0 -60 78 -60q35 0 62.5 13z" />
    <glyph glyph-name="guillemotleft" unicode="&#xab;" horiz-adv-x="599" 
d="M45 308v30l232 197l50 -64l-176 -148l176 -147l-50 -64zM272 308v30l232 197l50 -64l-176 -148l176 -147l-50 -64z" />
    <glyph glyph-name="logicalnot" unicode="&#xac;" horiz-adv-x="440" 
d="M300 258h-255v80h350v-204h-95v124z" />
    <glyph glyph-name="uni00AD" unicode="&#xad;" horiz-adv-x="409" 
d="M45 339h319v-83h-319v83z" />
    <glyph glyph-name="registered" unicode="&#xae;" horiz-adv-x="823" 
d="M226 31q-84 46 -132.5 128.5t-48.5 189.5t48.5 190t132.5 129t186 46t185.5 -46t132 -129t48.5 -190t-48.5 -189.5t-132 -128.5t-185.5 -46t-186 46zM551.5 105q62.5 33 98.5 96t36 148q0 84 -36 147t-98 96.5t-140 33.5q-79 0 -141.5 -33.5t-98 -96t-35.5 -147.5
t36 -148t98.5 -96t140.5 -33q77 0 139.5 33zM259 575h177q73 0 114 -33.5t41 -99.5q0 -50 -29.5 -84.5t-83.5 -44.5l94 -185h-81l-93 182h-60v-182h-79v447zM429 373q45 0 66.5 16t21.5 53q0 42 -20.5 55.5t-67.5 13.5h-91v-138h91z" />
    <glyph glyph-name="macron" unicode="&#xaf;" horiz-adv-x="401" 
d="M45 673h311v-69h-311v69z" />
    <glyph glyph-name="degree" unicode="&#xb0;" horiz-adv-x="378" 
d="M117 458.5q-33 19.5 -52.5 52.5t-19.5 72t19.5 72t52.5 52.5t72 19.5t72 -19.5t52.5 -52.5t19.5 -72t-19.5 -72t-52.5 -52.5t-72 -19.5t-72 19.5zM242.5 528.5q22.5 22.5 22.5 54.5q0 31 -22.5 53.5t-54.5 22.5q-31 0 -53.5 -22.5t-22.5 -53.5t22.5 -54t53.5 -23
q32 0 54.5 22.5z" />
    <glyph glyph-name="plusminus" unicode="&#xb1;" horiz-adv-x="409" 
d="M163 266h-118v83h118v118h82v-118h119v-83h-119v-119h-82v119zM45 82h319v-82h-319v82z" />
    <glyph glyph-name="uni00B2" unicode="&#xb2;" horiz-adv-x="341" 
d="M45 420l73 63q5 5 15 13q48 40 65.5 60.5t17.5 44.5q0 43 -54 43q-24 0 -53.5 -8.5t-48.5 -21.5v67q19 12 49.5 20t56.5 8q62 0 94.5 -29.5t32.5 -74.5q0 -26 -9.5 -45t-25 -35t-50.5 -45l-59 -50h147v-60h-251v50z" />
    <glyph glyph-name="uni00B3" unicode="&#xb3;" horiz-adv-x="345" 
d="M45 378v60q20 -10 48.5 -15.5t53.5 -5.5q73 0 73 45q0 24 -16.5 34.5t-56.5 10.5h-46v57h45q65 0 65 43t-67 43q-49 0 -92 -26v59q44 26 113 26q60 0 93 -25t33 -69q0 -57 -56 -79q65 -13 65 -79q0 -45 -36.5 -71t-101.5 -26q-75 0 -117 18z" />
    <glyph glyph-name="acute" unicode="&#xb4;" horiz-adv-x="265" 
d="M114 753h106l-83 -172h-92z" />
    <glyph glyph-name="paragraph" unicode="&#xb6;" horiz-adv-x="741" 
d="M352 266h-61q-71 0 -126.5 28t-87.5 83t-32 134q0 122 70.5 186.5t188.5 64.5h392v-896h-103v810h-139v-810h-102v400z" />
    <glyph glyph-name="periodcentered" unicode="&#xb7;" horiz-adv-x="185" 
d="M58.5 261q-13.5 14 -13.5 34t14 34t33 14q20 0 34 -14t14 -34t-14 -34t-34 -14t-33.5 14z" />
    <glyph glyph-name="cedilla" unicode="&#xb8;" horiz-adv-x="306" 
d="M45 -237v58q11 -5 27 -8t31 -3q63 0 63 46q0 55 -101 55l34 89h92l-22 -56q45 -6 68.5 -30.5t23.5 -64.5q0 -44 -36.5 -70.5t-97.5 -26.5q-57 0 -82 11z" />
    <glyph glyph-name="uni00B9" unicode="&#xb9;" horiz-adv-x="233" 
d="M131 620l-86 -62v72l92 69h71v-329h-77v250z" />
    <glyph glyph-name="ordmasculine" unicode="&#xba;" horiz-adv-x="482" 
d="M98.5 397q-53.5 49 -53.5 134q0 82 54 132.5t142 50.5q87 0 141.5 -50.5t54.5 -132.5q0 -84 -54 -133.5t-142 -49.5q-89 0 -142.5 49zM325 444q32 33 32 87q0 55 -31.5 87t-84.5 32t-84.5 -32t-31.5 -87q0 -54 32 -87t84 -33t84 33z" />
    <glyph glyph-name="guillemotright" unicode="&#xbb;" horiz-adv-x="599" 
d="M45 176l176 147l-176 148l50 64l232 -197v-30l-232 -196zM272 176l176 147l-176 148l50 64l232 -197v-30l-232 -196z" />
    <glyph glyph-name="onequarter" unicode="&#xbc;" horiz-adv-x="715" 
d="M131 620l-86 -62v72l92 69h71v-329h-77v250zM493 699h104l-387 -699h-104zM546 72h-158v54l151 203h84v-200h47v-57h-47v-72h-77v72zM557 129v126l-96 -126h96z" />
    <glyph glyph-name="onehalf" unicode="&#xbd;" horiz-adv-x="738" 
d="M131 620l-86 -62v72l92 69h71v-329h-77v250zM493 699h104l-387 -699h-104zM440 50l74 63q57 49 77 71t20 48q0 43 -54 43q-23 0 -53 -8.5t-49 -21.5v67q19 12 49.5 20t57.5 8q62 0 94 -29.5t32 -74.5q0 -26 -9.5 -45t-25 -34.5t-50.5 -46.5l-58 -50h148v-60h-253v50z" />
    <glyph glyph-name="threequarters" unicode="&#xbe;" horiz-adv-x="735" 
d="M45 378v60q20 -10 48.5 -15.5t53.5 -5.5q73 0 73 45q0 24 -16.5 34.5t-56.5 10.5h-46v57h45q65 0 65 43t-67 43q-49 0 -92 -26v59q44 26 113 26q60 0 93 -25t33 -69q0 -57 -56 -79q65 -13 65 -79q0 -45 -36.5 -71t-101.5 -26q-75 0 -117 18zM513 699h104l-387 -699h-104z
M566 72h-158v54l151 203h84v-200h47v-57h-47v-72h-77v72zM577 129v126l-96 -126h96z" />
    <glyph glyph-name="questiondown" unicode="&#xbf;" horiz-adv-x="515" 
d="M257.5 449q-17.5 17 -17.5 42t17.5 42t42.5 17t42.5 -17t17.5 -42t-17 -42t-43 -17q-25 0 -42.5 17zM110 -130q-65 49 -65 134q0 52 27 89t85 78q41 30 59.5 47.5t26 39t7.5 57.5v20h98v-21q0 -61 -23 -101.5t-77 -78.5q-41 -29 -60.5 -45.5t-31 -36.5t-11.5 -48
q0 -46 35.5 -72t103.5 -26q101 0 186 40v-88q-86 -37 -186 -37q-109 0 -174 49z" />
    <glyph glyph-name="Agrave" unicode="&#xc0;" horiz-adv-x="746" 
d="M240 913h107l69 -172h-93zM324 699h98l279 -699h-104l-70 174h-309l-68 -174h-105zM499 259l-126 327l-126 -327h252z" />
    <glyph glyph-name="Aacute" unicode="&#xc1;" horiz-adv-x="746" 
d="M400 913h107l-83 -172h-92zM324 699h98l279 -699h-104l-70 174h-309l-68 -174h-105zM499 259l-126 327l-126 -327h252z" />
    <glyph glyph-name="Acircumflex" unicode="&#xc2;" horiz-adv-x="746" 
d="M329 907h89l142 -166h-102l-84 107l-84 -107h-103zM324 699h98l279 -699h-104l-70 174h-309l-68 -174h-105zM499 259l-126 327l-126 -327h252z" />
    <glyph glyph-name="Atilde" unicode="&#xc3;" horiz-adv-x="746" 
d="M183 828q31 43 98 43q22 0 42.5 -6t52.5 -19q27 -12 47.5 -18.5t42.5 -6.5q30 0 54 11.5t43 39.5v-86q-30 -42 -97 -42q-25 0 -47.5 6.5t-51.5 19.5q-29 12 -47 18t-39 6q-29 0 -53 -11.5t-45 -40.5v86zM324 699h98l279 -699h-104l-70 174h-309l-68 -174h-105zM499 259
l-126 327l-126 -327h252z" />
    <glyph glyph-name="Adieresis" unicode="&#xc4;" horiz-adv-x="746" 
d="M218.5 758q-17.5 17 -17.5 41t17.5 41t41.5 17q23 0 40 -17t17 -41t-17 -41t-40 -17q-24 0 -41.5 17zM445.5 758q-17.5 17 -17.5 41t17.5 41t41.5 17q23 0 40 -17t17 -41t-17 -41t-40 -17q-24 0 -41.5 17zM324 699h98l279 -699h-104l-70 174h-309l-68 -174h-105zM499 259
l-126 327l-126 -327h252z" />
    <glyph glyph-name="Aring" unicode="&#xc5;" horiz-adv-x="746" 
d="M701 0h-104l-70 174h-309l-68 -174h-105l267 670q-25 15 -40 41t-15 58q0 48 33.5 82t82.5 34q48 0 82 -34t34 -82q0 -31 -15 -57.5t-40 -41.5zM335 807q-16 -16 -16 -38q0 -23 16 -39t38 -16t38 16.5t16 38.5t-16 38t-38 16t-38 -16zM499 259l-126 327l-126 -327h252z
" />
    <glyph glyph-name="AE" unicode="&#xc6;" horiz-adv-x="922" 
d="M388 699h489v-86h-320v-221h229v-85h-229v-222h320v-85h-422v179h-215l-87 -179h-108zM455 259v348h-8l-166 -348h174z" />
    <glyph glyph-name="Ccedilla" unicode="&#xc7;" horiz-adv-x="710" 
d="M469 -13l-17 -43q45 -6 68 -30.5t23 -64.5q0 -44 -36 -70.5t-98 -26.5q-55 0 -82 11l1 58q10 -5 26.5 -8t30.5 -3q64 0 64 46q0 55 -101 55l29 76q-98 7 -173.5 53.5t-117 126t-41.5 182.5q0 109 47 192t131 128t192 45q144 0 241 -73v-98q-87 77 -232 77
q-81 0 -143.5 -33t-97.5 -94.5t-35 -143.5t35.5 -144t98 -95t142.5 -33q74 0 132.5 19.5t108.5 62.5v-99q-75 -62 -196 -73z" />
    <glyph glyph-name="Egrave" unicode="&#xc8;" horiz-adv-x="571" 
d="M164 926h107l69 -172h-93zM65 699h461v-86h-359v-221h268v-85h-268v-222h359v-85h-461v699z" />
    <glyph glyph-name="Eacute" unicode="&#xc9;" horiz-adv-x="566" 
d="M301 913h107l-83 -172h-92zM65 699h461v-86h-359v-221h268v-85h-268v-222h359v-85h-461v699z" />
    <glyph glyph-name="Ecircumflex" unicode="&#xca;" horiz-adv-x="571" 
d="M236 913h89l142 -166h-102l-84 107l-84 -107h-103zM65 699h461v-86h-359v-221h268v-85h-268v-222h359v-85h-461v699z" />
    <glyph glyph-name="Edieresis" unicode="&#xcb;" horiz-adv-x="571" 
d="M130.5 768q-17.5 17 -17.5 41t17.5 41t41.5 17q23 0 40 -17t17 -41t-17 -41t-40 -17q-24 0 -41.5 17zM357.5 768q-17.5 17 -17.5 41t17.5 41t41.5 17q23 0 40 -17t17 -41t-17 -41t-40 -17q-24 0 -41.5 17zM65 699h461v-86h-359v-221h268v-85h-268v-222h359v-85h-461v699z
" />
    <glyph glyph-name="Igrave" unicode="&#xcc;" horiz-adv-x="236" 
d="M-12 913h107l69 -172h-93zM66 699h103v-699h-103v699z" />
    <glyph glyph-name="Iacute" unicode="&#xcd;" horiz-adv-x="236" 
d="M140 913h107l-83 -172h-92zM66 699h103v-699h-103v699z" />
    <glyph glyph-name="Icircumflex" unicode="&#xce;" horiz-adv-x="236" 
d="M73 907h89l142 -166h-102l-84 107l-84 -107h-103zM66 699h103v-699h-103v699z" />
    <glyph glyph-name="Idieresis" unicode="&#xcf;" horiz-adv-x="236" 
d="M-37.5 758q-17.5 17 -17.5 41t17.5 41t41.5 17q23 0 40 -17t17 -41t-17 -41t-40 -17q-24 0 -41.5 17zM189.5 758q-17.5 17 -17.5 41t17.5 41t41.5 17q23 0 40 -17t17 -41t-17 -41t-40 -17q-24 0 -41.5 17zM66 699h103v-699h-103v699z" />
    <glyph glyph-name="Eth" unicode="&#xd0;" horiz-adv-x="727" 
d="M89 310h-64v78h64v311h225q113 0 196 -42t127.5 -120t44.5 -184q0 -174 -100.5 -263.5t-281.5 -89.5h-211v310zM299 88q138 0 209 68.5t71 196.5q0 119 -70 188.5t-194 69.5h-123v-223h184v-78h-184v-222h107z" />
    <glyph glyph-name="Ntilde" unicode="&#xd1;" horiz-adv-x="686" 
d="M164 828q31 43 98 43q22 0 42.5 -6t52.5 -19q27 -12 47.5 -18.5t42.5 -6.5q30 0 54 11.5t43 39.5v-86q-30 -42 -97 -42q-25 0 -47.5 6.5t-51.5 19.5q-29 12 -47 18t-39 6q-29 0 -53 -11.5t-45 -40.5v86zM65 699h97l356 -527v527h103v-699h-98l-356 527v-527h-102v699z
" />
    <glyph glyph-name="Ograve" unicode="&#xd2;" horiz-adv-x="826" 
d="M294 913h107l69 -172h-93zM225 30.5q-84 45.5 -132 128.5t-48 190t48 190t132 129t188 46t188 -46t132 -129t48 -190t-48 -190t-132 -128.5t-188 -45.5t-188 45.5zM547.5 110.5q60.5 33.5 95.5 95t35 143.5q0 81 -34.5 142.5t-94.5 95t-134 33.5q-75 0 -135.5 -33
t-96 -95t-35.5 -143q0 -82 35 -143.5t95.5 -95t134.5 -33.5t134.5 33.5z" />
    <glyph glyph-name="Oacute" unicode="&#xd3;" horiz-adv-x="826" 
d="M434 913h107l-83 -172h-92zM225 30.5q-84 45.5 -132 128.5t-48 190t48 190t132 129t188 46t188 -46t132 -129t48 -190t-48 -190t-132 -128.5t-188 -45.5t-188 45.5zM547.5 110.5q60.5 33.5 95.5 95t35 143.5q0 81 -34.5 142.5t-94.5 95t-134 33.5q-75 0 -135.5 -33
t-96 -95t-35.5 -143q0 -82 35 -143.5t95.5 -95t134.5 -33.5t134.5 33.5z" />
    <glyph glyph-name="Ocircumflex" unicode="&#xd4;" horiz-adv-x="826" 
d="M369 907h89l142 -166h-102l-84 107l-84 -107h-103zM225 30.5q-84 45.5 -132 128.5t-48 190t48 190t132 129t188 46t188 -46t132 -129t48 -190t-48 -190t-132 -128.5t-188 -45.5t-188 45.5zM547.5 110.5q60.5 33.5 95.5 95t35 143.5q0 81 -34.5 142.5t-94.5 95t-134 33.5
q-75 0 -135.5 -33t-96 -95t-35.5 -143q0 -82 35 -143.5t95.5 -95t134.5 -33.5t134.5 33.5z" />
    <glyph glyph-name="Otilde" unicode="&#xd5;" horiz-adv-x="826" 
d="M223 828q31 43 98 43q22 0 42.5 -6t52.5 -19q27 -12 47.5 -18.5t42.5 -6.5q30 0 54 11.5t43 39.5v-86q-30 -42 -97 -42q-25 0 -47.5 6.5t-51.5 19.5q-29 12 -47 18t-39 6q-29 0 -53 -11.5t-45 -40.5v86zM225 30.5q-84 45.5 -132 128.5t-48 190t48 190t132 129t188 46
t188 -46t132 -129t48 -190t-48 -190t-132 -128.5t-188 -45.5t-188 45.5zM547.5 110.5q60.5 33.5 95.5 95t35 143.5q0 81 -34.5 142.5t-94.5 95t-134 33.5q-75 0 -135.5 -33t-96 -95t-35.5 -143q0 -82 35 -143.5t95.5 -95t134.5 -33.5t134.5 33.5z" />
    <glyph glyph-name="Odieresis" unicode="&#xd6;" horiz-adv-x="826" 
d="M258.5 758q-17.5 17 -17.5 41t17.5 41t41.5 17q23 0 40 -17t17 -41t-17 -41t-40 -17q-24 0 -41.5 17zM485.5 758q-17.5 17 -17.5 41t17.5 41t41.5 17q23 0 40 -17t17 -41t-17 -41t-40 -17q-24 0 -41.5 17zM225 30.5q-84 45.5 -132 128.5t-48 190t48 190t132 129t188 46
t188 -46t132 -129t48 -190t-48 -190t-132 -128.5t-188 -45.5t-188 45.5zM547.5 110.5q60.5 33.5 95.5 95t35 143.5q0 81 -34.5 142.5t-94.5 95t-134 33.5q-75 0 -135.5 -33t-96 -95t-35.5 -143q0 -82 35 -143.5t95.5 -95t134.5 -33.5t134.5 33.5z" />
    <glyph glyph-name="multiply" unicode="&#xd7;" horiz-adv-x="374" 
d="M187 243l-83 -83l-58 57l83 84l-84 84l58 58l83 -84l85 85l58 -59l-85 -85l84 -83l-57 -58z" />
    <glyph glyph-name="Oslash" unicode="&#xd8;" horiz-adv-x="826" 
d="M236 25q-88 45 -139.5 129.5t-51.5 194.5q0 107 48 190t132 129t188 46q48 0 95 -11l33 81h100l-46 -113q87 -45 136.5 -129t49.5 -193q0 -107 -48 -190t-132 -128.5t-188 -45.5q-42 0 -90 10l-32 -81h-100zM472 614q-29 6 -59 6q-75 0 -135 -33.5t-95 -95t-35 -142.5
q0 -79 33 -139.5t90 -95.5zM547.5 110.5q60.5 33.5 95.5 95t35 143.5q0 77 -32 136.5t-87 94.5l-201 -498q22 -5 55 -5q74 0 134.5 33.5z" />
    <glyph glyph-name="Ugrave" unicode="&#xd9;" horiz-adv-x="697" 
d="M224 913h107l69 -172h-93zM133 58.5q-73 73.5 -73 202.5v438h102v-442q0 -89 50 -134.5t137 -45.5q86 0 136 45.5t50 134.5v442h102v-438q0 -128 -73 -202t-215 -74q-143 0 -216 73.5z" />
    <glyph glyph-name="Uacute" unicode="&#xda;" horiz-adv-x="697" 
d="M363 913h107l-83 -172h-92zM133 58.5q-73 73.5 -73 202.5v438h102v-442q0 -89 50 -134.5t137 -45.5q86 0 136 45.5t50 134.5v442h102v-438q0 -128 -73 -202t-215 -74q-143 0 -216 73.5z" />
    <glyph glyph-name="Ucircumflex" unicode="&#xdb;" horiz-adv-x="697" 
d="M304 907h89l142 -166h-102l-84 107l-84 -107h-103zM133 58.5q-73 73.5 -73 202.5v438h102v-442q0 -89 50 -134.5t137 -45.5q86 0 136 45.5t50 134.5v442h102v-438q0 -128 -73 -202t-215 -74q-143 0 -216 73.5z" />
    <glyph glyph-name="Udieresis" unicode="&#xdc;" horiz-adv-x="697" 
d="M193.5 758q-17.5 17 -17.5 41t17.5 41t41.5 17q23 0 40 -17t17 -41t-17 -41t-40 -17q-24 0 -41.5 17zM420.5 758q-17.5 17 -17.5 41t17.5 41t41.5 17q23 0 40 -17t17 -41t-17 -41t-40 -17q-24 0 -41.5 17zM133 58.5q-73 73.5 -73 202.5v438h102v-442q0 -89 50 -134.5
t137 -45.5q86 0 136 45.5t50 134.5v442h102v-438q0 -128 -73 -202t-215 -74q-143 0 -216 73.5z" />
    <glyph glyph-name="Yacute" unicode="&#xdd;" horiz-adv-x="700" 
d="M355 926h107l-83 -172h-92zM299 265l-254 434h109l195 -337l198 337h108l-257 -434v-265h-99v265z" />
    <glyph glyph-name="Thorn" unicode="&#xde;" horiz-adv-x="603" 
d="M65 699h102v-138h173q114 0 176 -52t62 -159q0 -106 -62 -157.5t-176 -51.5h-173v-141h-102v699zM323 226q71 0 111.5 26.5t40.5 97.5q0 72 -40 98.5t-112 26.5h-156v-249h156z" />
    <glyph glyph-name="germandbls" unicode="&#xdf;" horiz-adv-x="633" 
d="M233 4v94q45 -21 116 -21q63 0 99.5 38t36.5 101q0 121 -152 121h-50v86h43q51 0 77 30t26 84q0 51 -34.5 82t-93.5 31q-139 0 -139 -140v-510h-102v504q0 115 62 177.5t178 62.5q77 0 129 -29t77.5 -76.5t25.5 -101.5q0 -51 -22 -91.5t-62 -59.5q68 -16 104 -63t36 -121
q0 -98 -57.5 -157.5t-165.5 -59.5q-87 0 -132 19z" />
    <glyph glyph-name="agrave" unicode="&#xe0;" horiz-adv-x="569" 
d="M171 706h107l69 -172h-93zM97.5 29.5q-52.5 44.5 -52.5 120.5q0 80 50.5 123.5t143.5 43.5q99 0 168 -40v25q0 57 -34.5 84.5t-108.5 27.5q-44 0 -85.5 -8.5t-74.5 -23.5v82q30 14 78 22.5t93 8.5q119 0 176.5 -52.5t57.5 -145.5v-297h-95v54q-31 -34 -73.5 -51.5
t-103.5 -17.5q-87 0 -139.5 44.5zM349 81q39 19 58 53v65q-65 42 -145 42q-58 0 -86.5 -22.5t-28.5 -68.5q0 -88 115 -88q48 0 87 19z" />
    <glyph glyph-name="aacute" unicode="&#xe1;" horiz-adv-x="569" 
d="M305 706h107l-83 -172h-92zM97.5 29.5q-52.5 44.5 -52.5 120.5q0 80 50.5 123.5t143.5 43.5q99 0 168 -40v25q0 57 -34.5 84.5t-108.5 27.5q-44 0 -85.5 -8.5t-74.5 -23.5v82q30 14 78 22.5t93 8.5q119 0 176.5 -52.5t57.5 -145.5v-297h-95v54q-31 -34 -73.5 -51.5
t-103.5 -17.5q-87 0 -139.5 44.5zM349 81q39 19 58 53v65q-65 42 -145 42q-58 0 -86.5 -22.5t-28.5 -68.5q0 -88 115 -88q48 0 87 19z" />
    <glyph glyph-name="acircumflex" unicode="&#xe2;" horiz-adv-x="569" 
d="M249 700h89l142 -166h-102l-84 107l-84 -107h-103zM97.5 29.5q-52.5 44.5 -52.5 120.5q0 80 50.5 123.5t143.5 43.5q99 0 168 -40v25q0 57 -34.5 84.5t-108.5 27.5q-44 0 -85.5 -8.5t-74.5 -23.5v82q30 14 78 22.5t93 8.5q119 0 176.5 -52.5t57.5 -145.5v-297h-95v54
q-31 -34 -73.5 -51.5t-103.5 -17.5q-87 0 -139.5 44.5zM349 81q39 19 58 53v65q-65 42 -145 42q-58 0 -86.5 -22.5t-28.5 -68.5q0 -88 115 -88q48 0 87 19z" />
    <glyph glyph-name="atilde" unicode="&#xe3;" horiz-adv-x="569" 
d="M110 620q31 43 98 43q22 0 42.5 -6t52.5 -19q27 -12 47.5 -18.5t42.5 -6.5q30 0 54 11.5t43 39.5v-86q-30 -42 -97 -42q-25 0 -47.5 6.5t-51.5 19.5q-29 12 -47 18t-39 6q-29 0 -53 -11.5t-45 -40.5v86zM97.5 29.5q-52.5 44.5 -52.5 120.5q0 80 50.5 123.5t143.5 43.5
q99 0 168 -40v25q0 57 -34.5 84.5t-108.5 27.5q-44 0 -85.5 -8.5t-74.5 -23.5v82q30 14 78 22.5t93 8.5q119 0 176.5 -52.5t57.5 -145.5v-297h-95v54q-31 -34 -73.5 -51.5t-103.5 -17.5q-87 0 -139.5 44.5zM349 81q39 19 58 53v65q-65 42 -145 42q-58 0 -86.5 -22.5
t-28.5 -68.5q0 -88 115 -88q48 0 87 19z" />
    <glyph glyph-name="adieresis" unicode="&#xe4;" horiz-adv-x="569" 
d="M133.5 547q-17.5 17 -17.5 41t17.5 41t41.5 17q23 0 40 -17t17 -41t-17 -41t-40 -17q-24 0 -41.5 17zM360.5 547q-17.5 17 -17.5 41t17.5 41t41.5 17q23 0 40 -17t17 -41t-17 -41t-40 -17q-24 0 -41.5 17zM97.5 29.5q-52.5 44.5 -52.5 120.5q0 80 50.5 123.5t143.5 43.5
q99 0 168 -40v25q0 57 -34.5 84.5t-108.5 27.5q-44 0 -85.5 -8.5t-74.5 -23.5v82q30 14 78 22.5t93 8.5q119 0 176.5 -52.5t57.5 -145.5v-297h-95v54q-31 -34 -73.5 -51.5t-103.5 -17.5q-87 0 -139.5 44.5zM349 81q39 19 58 53v65q-65 42 -145 42q-58 0 -86.5 -22.5
t-28.5 -68.5q0 -88 115 -88q48 0 87 19z" />
    <glyph glyph-name="aring" unicode="&#xe5;" horiz-adv-x="569" 
d="M218.5 568.5q-33.5 33.5 -33.5 82.5q0 48 33.5 82t82.5 34q48 0 82 -34t34 -82q0 -49 -34 -82.5t-82 -33.5q-49 0 -82.5 33.5zM339 612.5q16 16.5 16 38.5t-16 38t-38 16t-38 -16t-16 -38q0 -23 16 -39t38 -16t38 16.5zM97.5 29.5q-52.5 44.5 -52.5 120.5
q0 80 50.5 123.5t143.5 43.5q99 0 168 -40v25q0 57 -34.5 84.5t-108.5 27.5q-44 0 -85.5 -8.5t-74.5 -23.5v82q30 14 78 22.5t93 8.5q119 0 176.5 -52.5t57.5 -145.5v-297h-95v54q-31 -34 -73.5 -51.5t-103.5 -17.5q-87 0 -139.5 44.5zM349 81q39 19 58 53v65
q-65 42 -145 42q-58 0 -86.5 -22.5t-28.5 -68.5q0 -88 115 -88q48 0 87 19z" />
    <glyph glyph-name="ae" unicode="&#xe6;" horiz-adv-x="972" 
d="M97.5 29q-52.5 44 -52.5 121q0 80 50.5 123.5t143.5 43.5q99 0 168 -40v25q0 57 -34.5 84.5t-108.5 27.5q-44 0 -85.5 -8.5t-74.5 -23.5v82q30 14 78 22.5t93 8.5q132 0 192 -80q34 38 85 59t116 21q83 0 141.5 -31.5t88 -87t29.5 -126.5v-50h-420q5 -69 56.5 -102
t140.5 -33q47 0 93.5 8.5t82.5 22.5v-81q-32 -13 -84.5 -21.5t-103.5 -8.5q-148 0 -227 89q-39 -43 -93 -66t-131 -23q-91 0 -143.5 44zM831 271q-2 68 -44 105.5t-120 37.5q-76 0 -117 -39t-43 -104h324zM348.5 80.5q38.5 18.5 58.5 52.5v66q-65 42 -145 42
q-58 0 -86.5 -22.5t-28.5 -68.5q0 -88 115 -88q48 0 86.5 18.5z" />
    <glyph glyph-name="ccedilla" unicode="&#xe7;" horiz-adv-x="547" 
d="M363 -13l-17 -43q45 -6 68 -30.5t23 -64.5q0 -44 -36 -70.5t-98 -26.5q-55 0 -82 11l1 58q10 -5 26.5 -8t30.5 -3q64 0 64 46q0 55 -101 55l29 77q-104 12 -165 78t-61 173q0 79 34.5 136.5t97 88.5t143.5 31q110 0 176 -43v-83q-65 45 -166 45q-82 0 -132.5 -44.5
t-50.5 -130.5t50 -130t131 -44q101 0 174 48v-82q-56 -38 -139 -44z" />
    <glyph glyph-name="egrave" unicode="&#xe8;" horiz-adv-x="608" 
d="M188 706h107l69 -172h-93zM120.5 51.5q-75.5 66.5 -75.5 187.5q0 118 67.5 187t192.5 69q83 0 141 -31.5t87.5 -87t29.5 -126.5v-50h-422q5 -68 57.5 -101.5t142.5 -33.5q46 0 93 8.5t83 22.5v-81q-32 -13 -84.5 -21.5t-103.5 -8.5q-133 0 -208.5 66.5zM468 271
q-2 68 -44.5 105.5t-120.5 37.5q-76 0 -118 -39t-44 -104h327z" />
    <glyph glyph-name="eacute" unicode="&#xe9;" horiz-adv-x="608" 
d="M319 706h107l-83 -172h-92zM120.5 51.5q-75.5 66.5 -75.5 187.5q0 118 67.5 187t192.5 69q83 0 141 -31.5t87.5 -87t29.5 -126.5v-50h-422q5 -68 57.5 -101.5t142.5 -33.5q46 0 93 8.5t83 22.5v-81q-32 -13 -84.5 -21.5t-103.5 -8.5q-133 0 -208.5 66.5zM468 271
q-2 68 -44.5 105.5t-120.5 37.5q-76 0 -118 -39t-44 -104h327z" />
    <glyph glyph-name="ecircumflex" unicode="&#xea;" horiz-adv-x="608" 
d="M267 700h89l142 -166h-102l-84 107l-84 -107h-103zM120.5 51.5q-75.5 66.5 -75.5 187.5q0 118 67.5 187t192.5 69q83 0 141 -31.5t87.5 -87t29.5 -126.5v-50h-422q5 -68 57.5 -101.5t142.5 -33.5q46 0 93 8.5t83 22.5v-81q-32 -13 -84.5 -21.5t-103.5 -8.5
q-133 0 -208.5 66.5zM468 271q-2 68 -44.5 105.5t-120.5 37.5q-76 0 -118 -39t-44 -104h327z" />
    <glyph glyph-name="edieresis" unicode="&#xeb;" horiz-adv-x="608" 
d="M154.5 551q-17.5 17 -17.5 41t17.5 41t41.5 17q23 0 40 -17t17 -41t-17 -41t-40 -17q-24 0 -41.5 17zM381.5 551q-17.5 17 -17.5 41t17.5 41t41.5 17q23 0 40 -17t17 -41t-17 -41t-40 -17q-24 0 -41.5 17zM120.5 51.5q-75.5 66.5 -75.5 187.5q0 118 67.5 187t192.5 69
q83 0 141 -31.5t87.5 -87t29.5 -126.5v-50h-422q5 -68 57.5 -101.5t142.5 -33.5q46 0 93 8.5t83 22.5v-81q-32 -13 -84.5 -21.5t-103.5 -8.5q-133 0 -208.5 66.5zM468 271q-2 68 -44.5 105.5t-120.5 37.5q-76 0 -118 -39t-44 -104h327z" />
    <glyph glyph-name="igrave" unicode="&#xec;" horiz-adv-x="232" 
d="M-13 706h107l69 -172h-93zM65 480h102v-480h-102v480z" />
    <glyph glyph-name="iacute" unicode="&#xed;" horiz-adv-x="232" 
d="M137 706h107l-83 -172h-92zM65 480h102v-480h-102v480z" />
    <glyph glyph-name="icircumflex" unicode="&#xee;" horiz-adv-x="232" 
d="M72 700h89l142 -166h-102l-84 107l-84 -107h-103zM65 480h102v-480h-102v480z" />
    <glyph glyph-name="idieresis" unicode="&#xef;" horiz-adv-x="232" 
d="M-38.5 551q-17.5 17 -17.5 41t17.5 41t41.5 17q23 0 40 -17t17 -41t-17 -41t-40 -17q-24 0 -41.5 17zM188.5 551q-17.5 17 -17.5 41t17.5 41t41.5 17q23 0 40 -17t17 -41t-17 -41t-40 -17q-24 0 -41.5 17zM65 480h102v-480h-102v480z" />
    <glyph glyph-name="eth" unicode="&#xf0;" horiz-adv-x="625" 
d="M162 14.5q-57 29.5 -87 82.5t-30 121q0 106 66.5 168t183.5 62q54 0 101 -20t76 -58q-5 124 -48 190l-146 -69v67l103 48q-40 28 -94 28q-27 0 -60.5 -4.5t-51.5 -11.5v83q21 5 53 9t57 4q115 0 182 -67l113 54v-67l-76 -36q60 -100 60 -291q0 -105 -34 -177
t-94.5 -108.5t-137.5 -36.5q-79 0 -136 29.5zM380 83.5q34 21.5 53 56.5t19 76q0 44 -20 79t-54.5 54.5t-76.5 19.5q-69 0 -112.5 -42t-43.5 -111t43.5 -111.5t112.5 -42.5q45 0 79 21.5z" />
    <glyph glyph-name="ntilde" unicode="&#xf1;" horiz-adv-x="600" 
d="M104 621q31 43 98 43q22 0 42.5 -6t52.5 -19q27 -12 47.5 -18.5t42.5 -6.5q30 0 54 11.5t43 39.5v-86q-30 -42 -97 -42q-25 0 -47.5 6.5t-51.5 19.5q-29 12 -47 18t-39 6q-29 0 -53 -11.5t-45 -40.5v86zM65 480h98v-69q34 43 83.5 63.5t103.5 20.5q96 0 143 -51t47 -137
v-307h-101v297q0 117 -112 117q-48 0 -89.5 -22.5t-71.5 -68.5v-323h-101v480z" />
    <glyph glyph-name="ograve" unicode="&#xf2;" horiz-adv-x="637" 
d="M200 706h107l69 -172h-93zM175.5 15.5q-61.5 30.5 -96 88t-34.5 135.5q0 77 34 135t96 89.5t143 31.5t143 -31.5t96.5 -89.5t34.5 -135q0 -78 -34.5 -135.5t-96.5 -88t-143 -30.5t-142.5 30.5zM442 113q46 48 46 126q0 81 -46 128t-124 47t-124 -47t-46 -128
q0 -78 46 -126t124 -48t124 48z" />
    <glyph glyph-name="oacute" unicode="&#xf3;" horiz-adv-x="637" 
d="M330 706h107l-83 -172h-92zM175.5 15.5q-61.5 30.5 -96 88t-34.5 135.5q0 77 34 135t96 89.5t143 31.5t143 -31.5t96.5 -89.5t34.5 -135q0 -78 -34.5 -135.5t-96.5 -88t-143 -30.5t-142.5 30.5zM442 113q46 48 46 126q0 81 -46 128t-124 47t-124 -47t-46 -128
q0 -78 46 -126t124 -48t124 48z" />
    <glyph glyph-name="ocircumflex" unicode="&#xf4;" horiz-adv-x="655" 
d="M292 700h89l142 -166h-102l-84 107l-84 -107h-103zM193.5 15.5q-61.5 30.5 -96 88t-34.5 135.5q0 77 34 135t96 89.5t143 31.5t143 -31.5t96.5 -89.5t34.5 -135q0 -78 -34.5 -135.5t-96.5 -88t-143 -30.5t-142.5 30.5zM460 113q46 48 46 126q0 81 -46 128t-124 47
t-124 -47t-46 -128q0 -78 46 -126t124 -48t124 48z" />
    <glyph glyph-name="otilde" unicode="&#xf5;" horiz-adv-x="651" 
d="M142 627q31 43 98 43q22 0 42.5 -6t52.5 -19q27 -12 47.5 -18.5t42.5 -6.5q30 0 54 11.5t43 39.5v-86q-30 -42 -97 -42q-25 0 -47.5 6.5t-51.5 19.5q-29 12 -47 18t-39 6q-29 0 -53 -11.5t-45 -40.5v86zM189.5 15.5q-61.5 30.5 -96 88t-34.5 135.5q0 77 34 135t96 89.5
t143 31.5t143 -31.5t96.5 -89.5t34.5 -135q0 -78 -34.5 -135.5t-96.5 -88t-143 -30.5t-142.5 30.5zM456 113q46 48 46 126q0 81 -46 128t-124 47t-124 -47t-46 -128q0 -78 46 -126t124 -48t124 48z" />
    <glyph glyph-name="odieresis" unicode="&#xf6;" horiz-adv-x="646" 
d="M172.5 551q-17.5 17 -17.5 41t17.5 41t41.5 17q23 0 40 -17t17 -41t-17 -41t-40 -17q-24 0 -41.5 17zM399.5 551q-17.5 17 -17.5 41t17.5 41t41.5 17q23 0 40 -17t17 -41t-17 -41t-40 -17q-24 0 -41.5 17zM184.5 15.5q-61.5 30.5 -96 88t-34.5 135.5q0 77 34 135t96 89.5
t143 31.5t143 -31.5t96.5 -89.5t34.5 -135q0 -78 -34.5 -135.5t-96.5 -88t-143 -30.5t-142.5 30.5zM451 113q46 48 46 126q0 81 -46 128t-124 47t-124 -47t-46 -128q0 -78 46 -126t124 -48t124 48z" />
    <glyph glyph-name="divide" unicode="&#xf7;" horiz-adv-x="409" 
d="M168.5 399q-14.5 14 -14.5 35q0 22 14.5 36.5t35.5 14.5t35.5 -14.5t14.5 -36.5q0 -21 -14.5 -35t-35.5 -14t-35.5 14zM45 338h319v-81h-319v81zM168.5 124q-14.5 14 -14.5 35q0 22 14.5 36.5t35.5 14.5t35.5 -14.5t14.5 -36.5q0 -21 -14.5 -35t-35.5 -14t-35.5 14z" />
    <glyph glyph-name="oslash" unicode="&#xf8;" horiz-adv-x="637" 
d="M176 15q-62 31 -96.5 88.5t-34.5 135.5q0 77 34 135t96 89.5t143 31.5q18 0 50 -4l30 75h100l-41 -101q64 -31 99.5 -89.5t35.5 -136.5t-34.5 -135.5t-96.5 -88t-143 -30.5q-31 0 -52 4l-30 -75h-100zM336 413q-6 1 -18 1q-78 0 -124 -47t-46 -128q0 -46 16 -82t46 -59z
M442 113q46 48 46 126q0 48 -16.5 84.5t-47.5 59.5l-127 -317q7 -1 21 -1q78 0 124 48z" />
    <glyph glyph-name="ugrave" unicode="&#xf9;" horiz-adv-x="600" 
d="M174 706h107l69 -172h-93zM109.5 37q-49.5 52 -49.5 139v304h101v-300q0 -115 115 -115q101 0 158 91v324h101v-480h-98v68q-34 -43 -80.5 -63t-100.5 -20q-97 0 -146.5 52z" />
    <glyph glyph-name="uacute" unicode="&#xfa;" horiz-adv-x="600" 
d="M314 706h107l-83 -172h-92zM109.5 37q-49.5 52 -49.5 139v304h101v-300q0 -115 115 -115q101 0 158 91v324h101v-480h-98v68q-34 -43 -80.5 -63t-100.5 -20q-97 0 -146.5 52z" />
    <glyph glyph-name="ucircumflex" unicode="&#xfb;" horiz-adv-x="600" 
d="M248 700h89l142 -166h-102l-84 107l-84 -107h-103zM109.5 37q-49.5 52 -49.5 139v304h101v-300q0 -115 115 -115q101 0 158 91v324h101v-480h-98v68q-34 -43 -80.5 -63t-100.5 -20q-97 0 -146.5 52z" />
    <glyph glyph-name="udieresis" unicode="&#xfc;" horiz-adv-x="600" 
d="M141.5 551q-17.5 17 -17.5 41t17.5 41t41.5 17q23 0 40 -17t17 -41t-17 -41t-40 -17q-24 0 -41.5 17zM368.5 551q-17.5 17 -17.5 41t17.5 41t41.5 17q23 0 40 -17t17 -41t-17 -41t-40 -17q-24 0 -41.5 17zM109.5 37q-49.5 52 -49.5 139v304h101v-300q0 -115 115 -115
q101 0 158 91v324h101v-480h-98v68q-34 -43 -80.5 -63t-100.5 -20q-97 0 -146.5 52z" />
    <glyph glyph-name="yacute" unicode="&#xfd;" horiz-adv-x="587" 
d="M309 708h107l-83 -172h-92zM77 -187v79q26 -10 64 -10q35 0 55 17.5t36 56.5l23 56l-210 468h104l160 -369l149 369h104l-216 -534q-30 -75 -71.5 -109.5t-107.5 -34.5q-54 0 -90 11z" />
    <glyph glyph-name="thorn" unicode="&#xfe;" horiz-adv-x="660" 
d="M65 699h101v-283q34 38 85.5 58.5t111.5 20.5q72 0 129.5 -31.5t90 -89t32.5 -133.5q0 -75 -32.5 -133.5t-90 -90.5t-129.5 -32q-60 0 -112 20t-85 59v-283h-101v918zM428.5 87q39.5 22 62 62t22.5 92q0 51 -22.5 90.5t-62 61t-88.5 21.5q-62 0 -108.5 -32t-65.5 -88
v-108q17 -55 65 -88t109 -33q49 0 88.5 22z" />
    <glyph glyph-name="ydieresis" unicode="&#xff;" horiz-adv-x="587" 
d="M154.5 551q-17.5 17 -17.5 41t17.5 41t41.5 17q23 0 40 -17t17 -41t-17 -41t-40 -17q-24 0 -41.5 17zM381.5 551q-17.5 17 -17.5 41t17.5 41t41.5 17q23 0 40 -17t17 -41t-17 -41t-40 -17q-24 0 -41.5 17zM77 -187v79q26 -10 64 -10q35 0 55 17.5t36 56.5l23 56l-210 468
h104l160 -369l149 369h104l-216 -534q-30 -75 -71.5 -109.5t-107.5 -34.5q-54 0 -90 11z" />
    <glyph glyph-name="Amacron" unicode="&#x100;" horiz-adv-x="746" 
d="M217 821h312v-69h-312v69zM324 699h98l279 -699h-104l-70 174h-309l-68 -174h-105zM499 259l-126 327l-126 -327h252z" />
    <glyph glyph-name="amacron" unicode="&#x101;" horiz-adv-x="569" 
d="M147 614h312v-69h-312v69zM97.5 29.5q-52.5 44.5 -52.5 120.5q0 80 50.5 123.5t143.5 43.5q99 0 168 -40v25q0 57 -34.5 84.5t-108.5 27.5q-44 0 -85.5 -8.5t-74.5 -23.5v82q30 14 78 22.5t93 8.5q119 0 176.5 -52.5t57.5 -145.5v-297h-95v54q-31 -34 -73.5 -51.5
t-103.5 -17.5q-87 0 -139.5 44.5zM349 81q39 19 58 53v65q-65 42 -145 42q-58 0 -86.5 -22.5t-28.5 -68.5q0 -88 115 -88q48 0 87 19z" />
    <glyph glyph-name="Abreve" unicode="&#x102;" horiz-adv-x="746" 
d="M262.5 781q-40.5 39 -40.5 101h78q0 -34 19 -52.5t54 -18.5t54 18.5t19 52.5h77q0 -62 -40.5 -101t-109.5 -39q-70 0 -110.5 39zM324 699h98l279 -699h-104l-70 174h-309l-68 -174h-105zM499 259l-126 327l-126 -327h252z" />
    <glyph glyph-name="abreve" unicode="&#x103;" horiz-adv-x="569" 
d="M191.5 574q-40.5 39 -40.5 101h78q0 -34 19 -52.5t54 -18.5t54 18.5t19 52.5h77q0 -62 -40.5 -101t-109.5 -39q-70 0 -110.5 39zM97.5 29.5q-52.5 44.5 -52.5 120.5q0 80 50.5 123.5t143.5 43.5q99 0 168 -40v25q0 57 -34.5 84.5t-108.5 27.5q-44 0 -85.5 -8.5
t-74.5 -23.5v82q30 14 78 22.5t93 8.5q119 0 176.5 -52.5t57.5 -145.5v-297h-95v54q-31 -34 -73.5 -51.5t-103.5 -17.5q-87 0 -139.5 44.5zM349 81q39 19 58 53v65q-65 42 -145 42q-58 0 -86.5 -22.5t-28.5 -68.5q0 -88 115 -88q48 0 87 19z" />
    <glyph glyph-name="Aogonek" unicode="&#x104;" horiz-adv-x="746" 
d="M652 -149q25 0 48 10v-61q-33 -12 -77 -12q-46 0 -75 23t-29 67q0 37 20.5 69t53.5 53h4l-70 174h-309l-68 -174h-105l279 699h98l279 -699h-14q-40 -26 -59.5 -51t-19.5 -55q0 -43 44 -43zM499 259l-126 327l-126 -327h252z" />
    <glyph glyph-name="aogonek" unicode="&#x105;" horiz-adv-x="569" 
d="M521 -139v-61q-33 -12 -77 -12q-46 0 -75 23t-29 67q0 37 20.5 69t53.5 53v54q-31 -34 -73.5 -51.5t-103.5 -17.5q-87 0 -139.5 44.5t-52.5 120.5q0 80 50.5 123.5t143.5 43.5q99 0 168 -40v25q0 57 -34.5 84.5t-108.5 27.5q-44 0 -85.5 -8.5t-74.5 -23.5v82
q30 14 78 22.5t93 8.5q119 0 176.5 -52.5t57.5 -145.5v-297h-1q-40 -26 -59.5 -51t-19.5 -55q0 -43 44 -43q25 0 48 10zM407 199q-65 42 -145 42q-58 0 -86.5 -22.5t-28.5 -68.5q0 -88 115 -88q48 0 87 19t58 53v65z" />
    <glyph glyph-name="Cacute" unicode="&#x106;" horiz-adv-x="710" 
d="M435 913h107l-83 -172h-92zM223 30q-84 45 -131 127.5t-47 191.5t47 192t131 128t192 45q144 0 241 -73v-98q-87 77 -232 77q-81 0 -143.5 -33t-97.5 -94.5t-35 -143.5t35.5 -144t98 -95t142.5 -33q74 0 132.5 19.5t108.5 62.5v-99q-90 -75 -250 -75q-108 0 -192 45z" />
    <glyph glyph-name="cacute" unicode="&#x107;" horiz-adv-x="547" 
d="M333 706h107l-83 -172h-92zM176 15q-62 30 -96.5 87.5t-34.5 136.5t34.5 136.5t97 88.5t143.5 31q110 0 176 -43v-83q-65 45 -166 45q-82 0 -132.5 -44.5t-50.5 -130.5t50 -130t131 -44q101 0 174 48v-82q-35 -24 -79.5 -35t-104.5 -11q-80 0 -142 30z" />
    <glyph glyph-name="Ccircumflex" unicode="&#x108;" horiz-adv-x="710" 
d="M362 907h89l142 -166h-102l-84 107l-84 -107h-103zM223 30q-84 45 -131 127.5t-47 191.5t47 192t131 128t192 45q144 0 241 -73v-98q-87 77 -232 77q-81 0 -143.5 -33t-97.5 -94.5t-35 -143.5t35.5 -144t98 -95t142.5 -33q74 0 132.5 19.5t108.5 62.5v-99
q-90 -75 -250 -75q-108 0 -192 45z" />
    <glyph glyph-name="ccircumflex" unicode="&#x109;" horiz-adv-x="547" 
d="M263 700h89l142 -166h-102l-84 107l-84 -107h-103zM176 15q-62 30 -96.5 87.5t-34.5 136.5t34.5 136.5t97 88.5t143.5 31q110 0 176 -43v-83q-65 45 -166 45q-82 0 -132.5 -44.5t-50.5 -130.5t50 -130t131 -44q101 0 174 48v-82q-35 -24 -79.5 -35t-104.5 -11
q-80 0 -142 30z" />
    <glyph glyph-name="Cdotaccent" unicode="&#x10a;" horiz-adv-x="710" 
d="M365.5 758q-17.5 17 -17.5 41t17.5 41t41.5 17q23 0 40 -17t17 -41t-17 -41t-40 -17q-24 0 -41.5 17zM223 30q-84 45 -131 127.5t-47 191.5t47 192t131 128t192 45q144 0 241 -73v-98q-87 77 -232 77q-81 0 -143.5 -33t-97.5 -94.5t-35 -143.5t35.5 -144t98 -95
t142.5 -33q74 0 132.5 19.5t108.5 62.5v-99q-90 -75 -250 -75q-108 0 -192 45z" />
    <glyph glyph-name="cdotaccent" unicode="&#x10b;" horiz-adv-x="547" 
d="M269.5 551q-17.5 17 -17.5 41t17.5 41t41.5 17q23 0 40 -17t17 -41t-17 -41t-40 -17q-24 0 -41.5 17zM176 15q-62 30 -96.5 87.5t-34.5 136.5t34.5 136.5t97 88.5t143.5 31q110 0 176 -43v-83q-65 45 -166 45q-82 0 -132.5 -44.5t-50.5 -130.5t50 -130t131 -44
q101 0 174 48v-82q-35 -24 -79.5 -35t-104.5 -11q-80 0 -142 30z" />
    <glyph glyph-name="Ccaron" unicode="&#x10c;" horiz-adv-x="710" 
d="M225 908h103l84 -107l84 107h102l-142 -166h-89zM223 30q-84 45 -131 127.5t-47 191.5t47 192t131 128t192 45q144 0 241 -73v-98q-87 77 -232 77q-81 0 -143.5 -33t-97.5 -94.5t-35 -143.5t35.5 -144t98 -95t142.5 -33q74 0 132.5 19.5t108.5 62.5v-99q-90 -75 -250 -75
q-108 0 -192 45z" />
    <glyph glyph-name="ccaron" unicode="&#x10d;" horiz-adv-x="547" 
d="M119 701h103l84 -107l84 107h102l-142 -166h-89zM176 15q-62 30 -96.5 87.5t-34.5 136.5t34.5 136.5t97 88.5t143.5 31q110 0 176 -43v-83q-65 45 -166 45q-82 0 -132.5 -44.5t-50.5 -130.5t50 -130t131 -44q101 0 174 48v-82q-35 -24 -79.5 -35t-104.5 -11
q-80 0 -142 30z" />
    <glyph glyph-name="Dcaron" unicode="&#x10e;" horiz-adv-x="703" 
d="M132 908h103l84 -107l84 107h102l-142 -166h-89zM65 699h225q113 0 196 -42t127.5 -120t44.5 -184q0 -174 -100.5 -263.5t-281.5 -89.5h-211v699zM275 85q140 0 210 69t70 199q0 120 -68.5 190t-195.5 70h-124v-528h108z" />
    <glyph glyph-name="dcaron" unicode="&#x10f;" horiz-adv-x="815" 
d="M714 769h86l-87 -182h-76zM167.5 3.5q-57.5 31.5 -90 89t-32.5 134.5q0 76 32.5 134t89.5 89.5t130 31.5q62 0 116.5 -25.5t81.5 -71.5v341h101v-739h-98v86q-32 -48 -84 -74.5t-117 -26.5q-72 0 -129.5 31.5zM429 83.5q47 30.5 66 85.5v116q-18 55 -65.5 86t-109.5 31
q-48 0 -87 -21.5t-61.5 -61t-22.5 -93.5q0 -53 22.5 -92t61.5 -60t87 -21q62 0 109 30.5z" />
    <glyph glyph-name="Dcroat" unicode="&#x110;" horiz-adv-x="727" 
d="M89 310h-64v78h64v311h225q113 0 196 -42t127.5 -120t44.5 -184q0 -174 -100.5 -263.5t-281.5 -89.5h-211v310zM299 88q138 0 209 68.5t71 196.5q0 119 -70 188.5t-194 69.5h-123v-223h184v-78h-184v-222h107z" />
    <glyph glyph-name="dcroat" unicode="&#x111;" horiz-adv-x="675" 
d="M167.5 16.5q-57.5 31.5 -90 89t-32.5 133.5q0 75 32.5 133t90 90.5t129.5 32.5q130 0 197 -79v141h-196v78h196v104h101v-104h55v-78h-55v-557h-98v70q-40 -44 -87.5 -64.5t-112.5 -20.5q-72 0 -129.5 31.5zM428.5 97.5q46.5 32.5 65.5 87.5v108q-17 55 -64.5 88
t-109.5 33q-49 0 -88.5 -22t-62 -62t-22.5 -91t22.5 -91t62 -61.5t88.5 -21.5q62 0 108.5 32.5z" />
    <glyph glyph-name="Emacron" unicode="&#x112;" horiz-adv-x="571" 
d="M143 831h312v-69h-312v69zM65 699h461v-86h-359v-221h268v-85h-268v-222h359v-85h-461v699z" />
    <glyph glyph-name="emacron" unicode="&#x113;" horiz-adv-x="608" 
d="M153 614h312v-69h-312v69zM120.5 51.5q-75.5 66.5 -75.5 187.5q0 118 67.5 187t192.5 69q83 0 141 -31.5t87.5 -87t29.5 -126.5v-50h-422q5 -68 57.5 -101.5t142.5 -33.5q46 0 93 8.5t83 22.5v-81q-32 -13 -84.5 -21.5t-103.5 -8.5q-133 0 -208.5 66.5zM468 271
q-2 68 -44.5 105.5t-120.5 37.5q-76 0 -118 -39t-44 -104h327z" />
    <glyph glyph-name="Ebreve" unicode="&#x114;" horiz-adv-x="571" 
d="M192.5 781q-40.5 39 -40.5 101h78q0 -34 19 -52.5t54 -18.5t54 18.5t19 52.5h77q0 -62 -40.5 -101t-109.5 -39q-70 0 -110.5 39zM65 699h461v-86h-359v-221h268v-85h-268v-222h359v-85h-461v699z" />
    <glyph glyph-name="ebreve" unicode="&#x115;" horiz-adv-x="608" 
d="M198.5 574q-40.5 39 -40.5 101h78q0 -34 19 -52.5t54 -18.5t54 18.5t19 52.5h77q0 -62 -40.5 -101t-109.5 -39q-70 0 -110.5 39zM120.5 51.5q-75.5 66.5 -75.5 187.5q0 118 67.5 187t192.5 69q83 0 141 -31.5t87.5 -87t29.5 -126.5v-50h-422q5 -68 57.5 -101.5
t142.5 -33.5q46 0 93 8.5t83 22.5v-81q-32 -13 -84.5 -21.5t-103.5 -8.5q-133 0 -208.5 66.5zM468 271q-2 68 -44.5 105.5t-120.5 37.5q-76 0 -118 -39t-44 -104h327z" />
    <glyph glyph-name="Edotaccent" unicode="&#x116;" horiz-adv-x="571" 
d="M257.5 757q-17.5 17 -17.5 41t17.5 41t41.5 17q23 0 40 -17t17 -41t-17 -41t-40 -17q-24 0 -41.5 17zM65 699h461v-86h-359v-221h268v-85h-268v-222h359v-85h-461v699z" />
    <glyph glyph-name="edotaccent" unicode="&#x117;" horiz-adv-x="608" 
d="M268.5 550q-17.5 17 -17.5 41t17.5 41t41.5 17q23 0 40 -17t17 -41t-17 -41t-40 -17q-24 0 -41.5 17zM120.5 51.5q-75.5 66.5 -75.5 187.5q0 118 67.5 187t192.5 69q83 0 141 -31.5t87.5 -87t29.5 -126.5v-50h-422q5 -68 57.5 -101.5t142.5 -33.5q46 0 93 8.5t83 22.5
v-81q-32 -13 -84.5 -21.5t-103.5 -8.5q-133 0 -208.5 66.5zM468 271q-2 68 -44.5 105.5t-120.5 37.5q-76 0 -118 -39t-44 -104h327z" />
    <glyph glyph-name="Eogonek" unicode="&#x118;" horiz-adv-x="571" 
d="M167 613v-221h268v-85h-268v-222h359v-85h-19q-40 -26 -59.5 -51t-19.5 -55q0 -43 44 -43q25 0 48 10v-61q-33 -12 -77 -12q-46 0 -75 23t-29 67q0 37 20.5 69t53.5 53h-348v699h461v-86h-359z" />
    <glyph glyph-name="eogonek" unicode="&#x119;" horiz-adv-x="608" 
d="M563 200h-422q5 -68 57.5 -101.5t142.5 -33.5q46 0 93 8.5t83 22.5v-81q-28 -11 -80 -21q-35 -24 -52.5 -48t-17.5 -52q0 -43 44 -43q25 0 48 10v-61q-33 -12 -77 -12q-46 0 -75 23t-29 67q0 31 14.5 58.5t39.5 48.5h-3q-133 0 -208.5 66.5t-75.5 187.5q0 118 67.5 187
t192.5 69q83 0 141 -31.5t87.5 -87t29.5 -126.5v-50zM468 271q-2 68 -44.5 105.5t-120.5 37.5q-76 0 -118 -39t-44 -104h327z" />
    <glyph glyph-name="Ecaron" unicode="&#x11a;" horiz-adv-x="571" 
d="M117 908h103l84 -107l84 107h102l-142 -166h-89zM65 699h461v-86h-359v-221h268v-85h-268v-222h359v-85h-461v699z" />
    <glyph glyph-name="ecaron" unicode="&#x11b;" horiz-adv-x="608" 
d="M124 701h103l84 -107l84 107h102l-142 -166h-89zM120.5 51.5q-75.5 66.5 -75.5 187.5q0 118 67.5 187t192.5 69q83 0 141 -31.5t87.5 -87t29.5 -126.5v-50h-422q5 -68 57.5 -101.5t142.5 -33.5q46 0 93 8.5t83 22.5v-81q-32 -13 -84.5 -21.5t-103.5 -8.5
q-133 0 -208.5 66.5zM468 271q-2 68 -44.5 105.5t-120.5 37.5q-76 0 -118 -39t-44 -104h327z" />
    <glyph glyph-name="Gcircumflex" unicode="&#x11c;" horiz-adv-x="716" 
d="M366 907h89l142 -166h-102l-84 107l-84 -107h-103zM223 30q-84 45 -131 127.5t-47 191.5t47 192t131 128t192 45q145 0 241 -72v-98q-87 76 -232 76q-79 0 -142 -33t-98.5 -94.5t-35.5 -143.5t35 -144t97 -95t140 -33q91 0 149 37v183h-133v83h235v-320
q-47 -39 -110.5 -57t-145.5 -18q-108 0 -192 45z" />
    <glyph glyph-name="gcircumflex" unicode="&#x11d;" horiz-adv-x="660" 
d="M297 700h89l142 -166h-102l-84 107l-84 -107h-103zM220.5 -222q-46.5 8 -78.5 23v83q75 -34 174 -34q93 0 135.5 40.5t42.5 122.5v51q-66 -79 -194 -79q-73 0 -131 32t-91 90t-33 133q0 76 32.5 133.5t90 89.5t129.5 32q67 0 113.5 -19.5t86.5 -64.5v69h98v-456
q0 -123 -68.5 -188.5t-210.5 -65.5q-49 0 -95.5 8zM429.5 98q47.5 33 64.5 88v108q-19 56 -65.5 88t-108.5 32q-49 0 -88.5 -21.5t-62 -61.5t-22.5 -91q0 -52 22.5 -91.5t62 -61.5t88.5 -22q62 0 109.5 33z" />
    <glyph glyph-name="Gbreve" unicode="&#x11e;" horiz-adv-x="716" 
d="M308.5 781q-40.5 39 -40.5 101h78q0 -34 19 -52.5t54 -18.5t54 18.5t19 52.5h77q0 -62 -40.5 -101t-109.5 -39q-70 0 -110.5 39zM223 30q-84 45 -131 127.5t-47 191.5t47 192t131 128t192 45q145 0 241 -72v-98q-87 76 -232 76q-79 0 -142 -33t-98.5 -94.5t-35.5 -143.5
t35 -144t97 -95t140 -33q91 0 149 37v183h-133v83h235v-320q-47 -39 -110.5 -57t-145.5 -18q-108 0 -192 45z" />
    <glyph glyph-name="gbreve" unicode="&#x11f;" horiz-adv-x="660" 
d="M223.5 574q-40.5 39 -40.5 101h78q0 -34 19 -52.5t54 -18.5t54 18.5t19 52.5h77q0 -62 -40.5 -101t-109.5 -39q-70 0 -110.5 39zM220.5 -222q-46.5 8 -78.5 23v83q75 -34 174 -34q93 0 135.5 40.5t42.5 122.5v51q-66 -79 -194 -79q-73 0 -131 32t-91 90t-33 133
q0 76 32.5 133.5t90 89.5t129.5 32q67 0 113.5 -19.5t86.5 -64.5v69h98v-456q0 -123 -68.5 -188.5t-210.5 -65.5q-49 0 -95.5 8zM429.5 98q47.5 33 64.5 88v108q-19 56 -65.5 88t-108.5 32q-49 0 -88.5 -21.5t-62 -61.5t-22.5 -91q0 -52 22.5 -91.5t62 -61.5t88.5 -22
q62 0 109.5 33z" />
    <glyph glyph-name="Gdotaccent" unicode="&#x120;" horiz-adv-x="716" 
d="M373.5 758q-17.5 17 -17.5 41t17.5 41t41.5 17q23 0 40 -17t17 -41t-17 -41t-40 -17q-24 0 -41.5 17zM223 30q-84 45 -131 127.5t-47 191.5t47 192t131 128t192 45q145 0 241 -72v-98q-87 76 -232 76q-79 0 -142 -33t-98.5 -94.5t-35.5 -143.5t35 -144t97 -95t140 -33
q91 0 149 37v183h-133v83h235v-320q-47 -39 -110.5 -57t-145.5 -18q-108 0 -192 45z" />
    <glyph glyph-name="gdotaccent" unicode="&#x121;" horiz-adv-x="660" 
d="M298.5 551q-17.5 17 -17.5 41t17.5 41t41.5 17q23 0 40 -17t17 -41t-17 -41t-40 -17q-24 0 -41.5 17zM220.5 -222q-46.5 8 -78.5 23v83q75 -34 174 -34q93 0 135.5 40.5t42.5 122.5v51q-66 -79 -194 -79q-73 0 -131 32t-91 90t-33 133q0 76 32.5 133.5t90 89.5t129.5 32
q67 0 113.5 -19.5t86.5 -64.5v69h98v-456q0 -123 -68.5 -188.5t-210.5 -65.5q-49 0 -95.5 8zM429.5 98q47.5 33 64.5 88v108q-19 56 -65.5 88t-108.5 32q-49 0 -88.5 -21.5t-62 -61.5t-22.5 -91q0 -52 22.5 -91.5t62 -61.5t88.5 -22q62 0 109.5 33z" />
    <glyph glyph-name="Gcommaaccent" unicode="&#x122;" horiz-adv-x="716" 
d="M223 30q-84 45 -131 127.5t-47 191.5t47 192t131 128t192 45q145 0 241 -72v-98q-87 76 -232 76q-79 0 -142 -33t-98.5 -94.5t-35.5 -143.5t35 -144t97 -95t140 -33q91 0 149 37v183h-133v83h235v-320q-47 -39 -110.5 -57t-145.5 -18q-108 0 -192 45zM371 -60h106
l-95 -200h-92z" />
    <glyph glyph-name="gcommaaccent" unicode="&#x123;" horiz-adv-x="660" 
d="M380 735h92l-81 -200h-106zM220.5 -222q-46.5 8 -78.5 23v83q75 -34 174 -34q93 0 135.5 40.5t42.5 122.5v51q-66 -79 -194 -79q-73 0 -131 32t-91 90t-33 133q0 76 32.5 133.5t90 89.5t129.5 32q67 0 113.5 -19.5t86.5 -64.5v69h98v-456q0 -123 -68.5 -188.5
t-210.5 -65.5q-49 0 -95.5 8zM429.5 98q47.5 33 64.5 88v108q-19 56 -65.5 88t-108.5 32q-49 0 -88.5 -21.5t-62 -61.5t-22.5 -91q0 -52 22.5 -91.5t62 -61.5t88.5 -22q62 0 109.5 33z" />
    <glyph glyph-name="Hcircumflex" unicode="&#x124;" horiz-adv-x="699" 
d="M305 907h89l142 -166h-102l-84 107l-84 -107h-103zM65 699h102v-300h365v300h102v-699h-102v313h-365v-313h-102v699z" />
    <glyph glyph-name="hcircumflex" unicode="&#x125;" horiz-adv-x="600" 
d="M211 941h89l142 -166h-102l-84 107l-84 -107h-103zM65 739h101v-325q69 81 184 81q96 0 143 -51t47 -137v-307h-101v297q0 117 -112 117q-48 0 -89.5 -22.5t-71.5 -68.5v-323h-101v739z" />
    <glyph glyph-name="Hbar" unicode="&#x126;" horiz-adv-x="720" 
d="M71 505h-46v83h46v111h102v-111h365v111h102v-111h55v-83h-55v-505h-102v312h-365v-312h-102v505zM538 400v105h-365v-105h365z" />
    <glyph glyph-name="hbar" unicode="&#x127;" horiz-adv-x="606" 
d="M71 569h-46v75h46v95h101v-95h166v-75h-166v-156q70 82 184 82q97 0 143.5 -50t46.5 -136v-309h-101v297q0 57 -27 87t-87 30q-101 0 -159 -91v-323h-101v569z" />
    <glyph glyph-name="Itilde" unicode="&#x128;" horiz-adv-x="236" 
d="M-73 828q31 43 98 43q22 0 42.5 -6t52.5 -19q27 -12 47.5 -18.5t42.5 -6.5q30 0 54 11.5t43 39.5v-86q-30 -42 -97 -42q-25 0 -47.5 6.5t-51.5 19.5q-29 12 -47 18t-39 6q-29 0 -53 -11.5t-45 -40.5v86zM66 699h103v-699h-103v699z" />
    <glyph glyph-name="itilde" unicode="&#x129;" horiz-adv-x="232" 
d="M-74 620q31 43 98 43q22 0 42.5 -6t52.5 -19q27 -12 47.5 -18.5t42.5 -6.5q30 0 54 11.5t43 39.5v-86q-30 -42 -97 -42q-25 0 -47.5 6.5t-51.5 19.5q-29 12 -47 18t-39 6q-29 0 -53 -11.5t-45 -40.5v86zM65 480h102v-480h-102v480z" />
    <glyph glyph-name="Imacron" unicode="&#x12a;" horiz-adv-x="236" 
d="M-42 832h319v-70h-319v70zM66 699h103v-699h-103v699z" />
    <glyph glyph-name="imacron" unicode="&#x12b;" horiz-adv-x="232" 
d="M-44 625h319v-70h-319v70zM65 480h102v-480h-102v480z" />
    <glyph glyph-name="Ibreve" unicode="&#x12c;" horiz-adv-x="236" 
d="M7.5 781q-40.5 39 -40.5 101h78q0 -34 19 -52.5t54 -18.5t54 18.5t19 52.5h77q0 -62 -40.5 -101t-109.5 -39q-70 0 -110.5 39zM66 699h103v-699h-103v699z" />
    <glyph glyph-name="ibreve" unicode="&#x12d;" horiz-adv-x="232" 
d="M5.5 574q-40.5 39 -40.5 101h78q0 -34 19 -52.5t54 -18.5t54 18.5t19 52.5h77q0 -62 -40.5 -101t-109.5 -39q-70 0 -110.5 39zM65 480h102v-480h-102v480z" />
    <glyph glyph-name="Iogonek" unicode="&#x12e;" horiz-adv-x="236" 
d="M179 -139v-61q-33 -12 -77 -12q-46 0 -75 23t-29 67q0 37 20.5 69t53.5 53h-6v699h103v-699h-3q-40 -26 -59.5 -51t-19.5 -55q0 -43 44 -43q25 0 48 10z" />
    <glyph glyph-name="iogonek" unicode="&#x12f;" horiz-adv-x="250" 
d="M82 591q-17 17 -17 42t17 42t42 17q26 0 43.5 -17t17.5 -42t-17.5 -42t-43.5 -17q-25 0 -42 17zM137 -149q25 0 48 10v-61q-33 -12 -77 -12q-46 0 -75 23t-29 67q0 37 20.5 69t53.5 53h-5v480h103v-480h-4q-40 -26 -59.5 -51t-19.5 -55q0 -43 44 -43z" />
    <glyph glyph-name="Idotaccent" unicode="&#x130;" horiz-adv-x="236" 
d="M77.5 758q-17.5 17 -17.5 41t17.5 41t41.5 17q23 0 40 -17t17 -41t-17 -41t-40 -17q-24 0 -41.5 17zM66 699h103v-699h-103v699z" />
    <glyph glyph-name="dotlessi" unicode="&#x131;" horiz-adv-x="232" 
d="M65 480h102v-480h-102v480z" />
    <glyph glyph-name="IJ" unicode="&#x132;" horiz-adv-x="613" 
d="M66 699h103v-699h-103v699zM310 -10q-31 5 -47 12v87q15 -6 38.5 -10t44.5 -4q103 0 103 100v524h102v-531q0 -86 -49 -134.5t-133 -48.5q-28 0 -59 5z" />
    <glyph glyph-name="ij" unicode="&#x133;" horiz-adv-x="446" 
d="M82 591q-17 17 -17 42t17 42t42 17q26 0 43.5 -17t17.5 -42t-17.5 -42t-43.5 -17q-25 0 -42 17zM278 591q-17 17 -17 42t17.5 42t42.5 17t42.5 -17t17.5 -42t-17.5 -42t-42.5 -17q-26 0 -43 17zM73 480h103v-480h-103v480zM126 -220v83q26 -12 60 -12q45 0 64.5 21.5
t19.5 69.5v538h102v-545q0 -83 -46 -124.5t-124 -41.5q-45 0 -76 11z" />
    <glyph glyph-name="Jcircumflex" unicode="&#x134;" horiz-adv-x="375" 
d="M217 907h89l142 -166h-102l-84 107l-84 -107h-103zM72 -10q-31 5 -47 12v87q15 -6 38.5 -10t44.5 -4q103 0 103 100v524h102v-531q0 -86 -49 -134.5t-133 -48.5q-28 0 -59 5z" />
    <glyph glyph-name="jcircumflex" unicode="&#x135;" horiz-adv-x="236" 
d="M75 700h89l142 -166h-102l-84 107l-84 -107h-103zM-75 -220v83q26 -12 60 -12q45 0 64.5 21.5t19.5 69.5v538h102v-545q0 -83 -46 -124.5t-124 -41.5q-45 0 -76 11z" />
    <glyph glyph-name="Kcommaaccent" unicode="&#x136;" horiz-adv-x="670" 
d="M65 699h102v-699h-102v699zM172 356l319 343h124l-319 -343l339 -356h-124zM263 -60h106l-95 -200h-92z" />
    <glyph glyph-name="kcommaaccent" unicode="&#x137;" horiz-adv-x="569" 
d="M65 739h101v-739h-101v739zM167 243l221 237h123l-222 -237l245 -243h-123zM222 -60h106l-95 -200h-92z" />
    <glyph glyph-name="kgreenlandic" unicode="&#x138;" horiz-adv-x="567" 
d="M65 480h98v-480h-98v480zM167 240l224 240h117l-225 -240l249 -240h-117z" />
    <glyph glyph-name="Lacute" unicode="&#x139;" horiz-adv-x="546" 
d="M138 929h107l-83 -172h-92zM65 699h102v-614h354v-85h-456v699z" />
    <glyph glyph-name="lacute" unicode="&#x13a;" horiz-adv-x="231" 
d="M140 938h106l-83 -173h-93zM65 739h101v-739h-101v739z" />
    <glyph glyph-name="Lcommaaccent" unicode="&#x13b;" horiz-adv-x="546" 
d="M65 699h102v-614h354v-85h-456v699zM246 -60h106l-95 -200h-92z" />
    <glyph glyph-name="lcommaaccent" unicode="&#x13c;" horiz-adv-x="248" 
d="M82 739h101v-739h-101v739zM80 -60h106l-95 -200h-92z" />
    <glyph glyph-name="Lcaron" unicode="&#x13d;" horiz-adv-x="546" 
d="M354 702h106l-95 -200h-92zM65 699h102v-614h354v-85h-456v699z" />
    <glyph glyph-name="lcaron" unicode="&#x13e;" horiz-adv-x="435" 
d="M296 745h106l-95 -200h-92zM65 739h101v-739h-101v739z" />
    <glyph glyph-name="Ldot" unicode="&#x13f;" horiz-adv-x="546" 
d="M65 699h102v-614h354v-85h-456v699zM322.5 342q-17.5 17 -17.5 41t17.5 41t40.5 17t40.5 -17t17.5 -41t-17.5 -41t-40.5 -17t-40.5 17z" />
    <glyph glyph-name="ldot" unicode="&#x140;" horiz-adv-x="356" 
d="M65 739h101v-739h-101v739zM242.5 341q-17.5 17 -17.5 41t17.5 41t40.5 17t40.5 -17t17.5 -41t-17.5 -41t-40.5 -17t-40.5 17z" />
    <glyph glyph-name="Lslash" unicode="&#x141;" horiz-adv-x="598" 
d="M117 296l-102 -45v96l102 45v307h102v-261l162 73v-96l-162 -73v-257h354v-85h-456v296z" />
    <glyph glyph-name="lslash" unicode="&#x142;" horiz-adv-x="316" 
d="M101 296l-126 -56v96l126 56v347h102v-302l138 62v-96l-138 -62v-341h-102v296z" />
    <glyph glyph-name="Nacute" unicode="&#x143;" horiz-adv-x="686" 
d="M358 913h107l-83 -172h-92zM65 699h97l356 -527v527h103v-699h-98l-356 527v-527h-102v699z" />
    <glyph glyph-name="nacute" unicode="&#x144;" horiz-adv-x="600" 
d="M305 718h107l-83 -172h-92zM65 480h98v-69q34 43 83.5 63.5t103.5 20.5q96 0 143 -51t47 -137v-307h-101v297q0 117 -112 117q-48 0 -89.5 -22.5t-71.5 -68.5v-323h-101v480z" />
    <glyph glyph-name="Ncommaaccent" unicode="&#x145;" horiz-adv-x="686" 
d="M65 699h97l356 -527v527h103v-699h-98l-356 527v-527h-102v699zM303 -60h106l-95 -200h-92z" />
    <glyph glyph-name="ncommaaccent" unicode="&#x146;" horiz-adv-x="600" 
d="M65 480h98v-69q34 43 83.5 63.5t103.5 20.5q96 0 143 -51t47 -137v-307h-101v297q0 117 -112 117q-48 0 -89.5 -22.5t-71.5 -68.5v-323h-101v480zM262 -60h106l-95 -200h-92z" />
    <glyph glyph-name="Ncaron" unicode="&#x147;" horiz-adv-x="686" 
d="M158 908h103l84 -107l84 107h102l-142 -166h-89zM65 699h97l356 -527v527h103v-699h-98l-356 527v-527h-102v699z" />
    <glyph glyph-name="ncaron" unicode="&#x148;" horiz-adv-x="600" 
d="M120 701h103l84 -107l84 107h102l-142 -166h-89zM65 480h98v-69q34 43 83.5 63.5t103.5 20.5q96 0 143 -51t47 -137v-307h-101v297q0 117 -112 117q-48 0 -89.5 -22.5t-71.5 -68.5v-323h-101v480z" />
    <glyph glyph-name="napostrophe" unicode="&#x149;" horiz-adv-x="706" 
d="M111 703h106l-95 -200h-92zM171 480h98v-69q34 43 83.5 63.5t103.5 20.5q96 0 143 -51t47 -137v-307h-101v297q0 117 -112 117q-48 0 -89.5 -22.5t-71.5 -68.5v-323h-101v480z" />
    <glyph glyph-name="Eng" unicode="&#x14a;" horiz-adv-x="686" 
d="M375 -220v84q28 -13 60 -13q45 0 64.5 21.5t19.5 69.5v64l-352 521v-527h-102v699h97l356 -527v527h103v-763q0 -83 -46 -125t-124 -42q-45 0 -76 11z" />
    <glyph glyph-name="eng" unicode="&#x14b;" horiz-adv-x="600" 
d="M294 -220v84q28 -13 60 -13q45 0 65 22t20 69v355q0 117 -112 117q-48 0 -89.5 -22.5t-71.5 -68.5v-323h-101v480h98v-69q34 43 83.5 63.5t103.5 20.5q96 0 143 -51t47 -137v-371q0 -83 -45.5 -125t-123.5 -42q-46 0 -77 11z" />
    <glyph glyph-name="Omacron" unicode="&#x14c;" horiz-adv-x="826" 
d="M257 831h312v-69h-312v69zM225 30.5q-84 45.5 -132 128.5t-48 190t48 190t132 129t188 46t188 -46t132 -129t48 -190t-48 -190t-132 -128.5t-188 -45.5t-188 45.5zM547.5 110.5q60.5 33.5 95.5 95t35 143.5q0 81 -34.5 142.5t-94.5 95t-134 33.5q-75 0 -135.5 -33
t-96 -95t-35.5 -143q0 -82 35 -143.5t95.5 -95t134.5 -33.5t134.5 33.5z" />
    <glyph glyph-name="omacron" unicode="&#x14d;" horiz-adv-x="637" 
d="M162 624h312v-69h-312v69zM175.5 15.5q-61.5 30.5 -96 88t-34.5 135.5q0 77 34 135t96 89.5t143 31.5t143 -31.5t96.5 -89.5t34.5 -135q0 -78 -34.5 -135.5t-96.5 -88t-143 -30.5t-142.5 30.5zM442 113q46 48 46 126q0 81 -46 128t-124 47t-124 -47t-46 -128
q0 -78 46 -126t124 -48t124 48z" />
    <glyph glyph-name="Obreve" unicode="&#x14e;" horiz-adv-x="826" 
d="M302.5 781q-40.5 39 -40.5 101h78q0 -34 19 -52.5t54 -18.5t54 18.5t19 52.5h77q0 -62 -40.5 -101t-109.5 -39q-70 0 -110.5 39zM225 30.5q-84 45.5 -132 128.5t-48 190t48 190t132 129t188 46t188 -46t132 -129t48 -190t-48 -190t-132 -128.5t-188 -45.5t-188 45.5z
M547.5 110.5q60.5 33.5 95.5 95t35 143.5q0 81 -34.5 142.5t-94.5 95t-134 33.5q-75 0 -135.5 -33t-96 -95t-35.5 -143q0 -82 35 -143.5t95.5 -95t134.5 -33.5t134.5 33.5z" />
    <glyph glyph-name="obreve" unicode="&#x14f;" horiz-adv-x="637" 
d="M208.5 565q-40.5 39 -40.5 101h78q0 -34 19 -52.5t54 -18.5t54 18.5t19 52.5h77q0 -62 -40.5 -101t-109.5 -39q-70 0 -110.5 39zM175.5 15.5q-61.5 30.5 -96 88t-34.5 135.5q0 77 34 135t96 89.5t143 31.5t143 -31.5t96.5 -89.5t34.5 -135q0 -78 -34.5 -135.5t-96.5 -88
t-143 -30.5t-142.5 30.5zM442 113q46 48 46 126q0 81 -46 128t-124 47t-124 -47t-46 -128q0 -78 46 -126t124 -48t124 48z" />
    <glyph glyph-name="Ohungarumlaut" unicode="&#x150;" horiz-adv-x="826" 
d="M324 913h102l-83 -172h-87zM531 913h102l-83 -172h-88zM225 30.5q-84 45.5 -132 128.5t-48 190t48 190t132 129t188 46t188 -46t132 -129t48 -190t-48 -190t-132 -128.5t-188 -45.5t-188 45.5zM547.5 110.5q60.5 33.5 95.5 95t35 143.5q0 81 -34.5 142.5t-94.5 95
t-134 33.5q-75 0 -135.5 -33t-96 -95t-35.5 -143q0 -82 35 -143.5t95.5 -95t134.5 -33.5t134.5 33.5z" />
    <glyph glyph-name="ohungarumlaut" unicode="&#x151;" horiz-adv-x="646" 
d="M240 706h102l-83 -172h-87zM447 706h102l-83 -172h-88zM184.5 15.5q-61.5 30.5 -96 88t-34.5 135.5q0 77 34 135t96 89.5t143 31.5t143 -31.5t96.5 -89.5t34.5 -135q0 -78 -34.5 -135.5t-96.5 -88t-143 -30.5t-142.5 30.5zM451 113q46 48 46 126q0 81 -46 128t-124 47
t-124 -47t-46 -128q0 -78 46 -126t124 -48t124 48z" />
    <glyph glyph-name="OE" unicode="&#x152;" horiz-adv-x="891" 
d="M228.5 42q-85.5 42 -134.5 121t-49 186t49 186.5t134.5 121.5t193.5 42h424v-86h-309v-221h219v-85h-219v-222h309v-85h-424q-108 0 -193.5 42zM435 85v528h-20q-76 0 -136.5 -31.5t-95.5 -91.5t-35 -141t35 -141t95.5 -91.5t136.5 -31.5h20z" />
    <glyph glyph-name="oe" unicode="&#x153;" horiz-adv-x="1047" 
d="M590 200l-5 -28q14 -54 64.5 -80.5t130.5 -26.5q46 0 93 8.5t83 22.5v-81q-32 -13 -84.5 -21.5t-103.5 -8.5q-77 0 -135.5 23t-95.5 67q-36 -44 -92.5 -67t-126.5 -23q-81 0 -142.5 30.5t-96 88t-34.5 135.5q0 77 34 135t96 89.5t143 31.5q69 0 124.5 -23t91.5 -66
q33 43 86 66t124 23q83 0 141 -31.5t87.5 -87t29.5 -126.5v-50h-412zM431.5 103q44.5 38 54.5 103q-2 20 -2 33q0 11 2 35q-10 66 -54.5 103t-113.5 37q-78 0 -124 -47t-46 -128q0 -78 46 -126t124 -48q69 0 113.5 38zM636.5 385q-40.5 -29 -52.5 -79q4 -16 6 -35h317
q-2 68 -44.5 105.5t-120.5 37.5q-65 0 -105.5 -29z" />
    <glyph glyph-name="Racute" unicode="&#x154;" horiz-adv-x="623" 
d="M295 913h107l-83 -172h-92zM65 699h281q112 0 172 -54t60 -158q0 -77 -41 -130.5t-116 -72.5l154 -284h-106l-149 276h-153v-276h-102v699zM329 362q67 0 106.5 31.5t39.5 93.5q0 68 -38.5 97t-107.5 29h-162v-251h162z" />
    <glyph glyph-name="racute" unicode="&#x155;" horiz-adv-x="399" 
d="M170 706h107l-83 -172h-92zM65 480h98v-86q30 44 84.5 65t126.5 21v-79q-77 0 -132 -25t-76 -79v-297h-101v480z" />
    <glyph glyph-name="Rcommaaccent" unicode="&#x156;" horiz-adv-x="623" 
d="M65 699h281q112 0 172 -54t60 -158q0 -77 -41 -130.5t-116 -72.5l154 -284h-106l-149 276h-153v-276h-102v699zM329 362q67 0 106.5 31.5t39.5 93.5q0 68 -38.5 97t-107.5 29h-162v-251h162zM250 -60h106l-95 -200h-92z" />
    <glyph glyph-name="rcommaaccent" unicode="&#x157;" horiz-adv-x="399" 
d="M65 480h98v-86q30 44 84.5 65t126.5 21v-79q-77 0 -132 -25t-76 -79v-297h-101v480zM62 -60h106l-95 -200h-92z" />
    <glyph glyph-name="Rcaron" unicode="&#x158;" horiz-adv-x="623" 
d="M91 908h103l84 -107l84 107h102l-142 -166h-89zM65 699h281q112 0 172 -54t60 -158q0 -77 -41 -130.5t-116 -72.5l154 -284h-106l-149 276h-153v-276h-102v699zM329 362q67 0 106.5 31.5t39.5 93.5q0 68 -38.5 97t-107.5 29h-162v-251h162z" />
    <glyph glyph-name="rcaron" unicode="&#x159;" horiz-adv-x="441" 
d="M12 701h103l84 -107l84 107h102l-142 -166h-89zM106 480h98v-86q30 44 84.5 65t126.5 21v-79q-77 0 -132 -25t-76 -79v-297h-101v480z" />
    <glyph glyph-name="Sacute" unicode="&#x15a;" horiz-adv-x="561" 
d="M299 913h107l-83 -172h-92zM140.5 -4.5q-58.5 10.5 -95.5 28.5v92q96 -45 207 -45q156 0 156 105q0 36 -17 58t-49 38.5t-104 45.5q-99 40 -143 88t-44 121q0 55 30 97.5t84 66t124 23.5q57 0 103 -9t90 -29v-88q-87 39 -176 39q-72 0 -110 -26t-38 -74q0 -33 16.5 -55.5
t49 -40t96.5 -43.5q71 -29 112 -55t62.5 -63.5t21.5 -93.5q0 -91 -65 -141t-192 -50q-60 0 -118.5 10.5z" />
    <glyph glyph-name="sacute" unicode="&#x15b;" horiz-adv-x="489" 
d="M245 706h107l-83 -172h-92zM136 -2.5q-56 12.5 -88 33.5v86q39 -23 90 -37.5t99 -14.5q54 0 79 13t25 42q0 22 -11.5 35.5t-39 24.5t-82.5 26q-59 17 -93.5 34.5t-52 44.5t-17.5 70q0 69 54.5 104.5t146.5 35.5q48 0 94 -9t74 -25v-84q-29 17 -71.5 27t-86.5 10
q-53 0 -81 -13t-28 -46q0 -21 12 -34t38.5 -22.5t84.5 -24.5q91 -25 126.5 -59t35.5 -94q0 -62 -51 -99t-151 -37q-50 0 -106 12.5z" />
    <glyph glyph-name="Scircumflex" unicode="&#x15c;" horiz-adv-x="561" 
d="M237 907h89l142 -166h-102l-84 107l-84 -107h-103zM140.5 -4.5q-58.5 10.5 -95.5 28.5v92q96 -45 207 -45q156 0 156 105q0 36 -17 58t-49 38.5t-104 45.5q-99 40 -143 88t-44 121q0 55 30 97.5t84 66t124 23.5q57 0 103 -9t90 -29v-88q-87 39 -176 39q-72 0 -110 -26
t-38 -74q0 -33 16.5 -55.5t49 -40t96.5 -43.5q71 -29 112 -55t62.5 -63.5t21.5 -93.5q0 -91 -65 -141t-192 -50q-60 0 -118.5 10.5z" />
    <glyph glyph-name="scircumflex" unicode="&#x15d;" horiz-adv-x="489" 
d="M201 700h89l142 -166h-102l-84 107l-84 -107h-103zM136 -2.5q-56 12.5 -88 33.5v86q39 -23 90 -37.5t99 -14.5q54 0 79 13t25 42q0 22 -11.5 35.5t-39 24.5t-82.5 26q-59 17 -93.5 34.5t-52 44.5t-17.5 70q0 69 54.5 104.5t146.5 35.5q48 0 94 -9t74 -25v-84
q-29 17 -71.5 27t-86.5 10q-53 0 -81 -13t-28 -46q0 -21 12 -34t38.5 -22.5t84.5 -24.5q91 -25 126.5 -59t35.5 -94q0 -62 -51 -99t-151 -37q-50 0 -106 12.5z" />
    <glyph glyph-name="Scedilla" unicode="&#x15e;" horiz-adv-x="561" 
d="M463.5 46q-52.5 -49 -154.5 -59l-17 -43q45 -6 68 -30.5t23 -64.5q0 -44 -36 -70.5t-98 -26.5q-55 0 -82 11l1 58q10 -5 26.5 -8t30.5 -3q64 0 64 46q0 55 -101 55l29 75q-51 4 -96.5 13.5t-75.5 24.5v92q96 -45 207 -45q156 0 156 105q0 36 -17 58t-49 38.5t-104 45.5
q-99 40 -143 88t-44 121q0 55 30 97.5t84 66t124 23.5q57 0 103 -9t90 -29v-88q-87 39 -176 39q-72 0 -110 -26t-38 -74q0 -33 16.5 -55.5t49 -40t96.5 -43.5q71 -29 112 -55t62.5 -63.5t21.5 -93.5q0 -81 -52.5 -130z" />
    <glyph glyph-name="scedilla" unicode="&#x15f;" horiz-adv-x="489" 
d="M401.5 28.5q-42.5 -35.5 -125.5 -42.5l-17 -42q45 -6 68 -30.5t23 -64.5q0 -44 -36 -70.5t-98 -26.5q-55 0 -82 11l1 58q10 -5 26.5 -8t30.5 -3q64 0 64 46q0 55 -101 55l30 78q-40 5 -77 16t-60 26v86q39 -23 90 -37.5t99 -14.5q54 0 79 13t25 42q0 22 -11.5 35.5
t-39 24.5t-82.5 26q-59 17 -93.5 34.5t-52 44.5t-17.5 70q0 69 54.5 104.5t146.5 35.5q48 0 94 -9t74 -25v-84q-29 17 -71.5 27t-86.5 10q-53 0 -81 -13t-28 -46q0 -21 12 -34t38.5 -22.5t84.5 -24.5q91 -25 126.5 -59t35.5 -94q0 -57 -42.5 -92.5z" />
    <glyph glyph-name="Scaron" unicode="&#x160;" horiz-adv-x="561" 
d="M107 908h103l84 -107l84 107h102l-142 -166h-89zM140.5 -4.5q-58.5 10.5 -95.5 28.5v92q96 -45 207 -45q156 0 156 105q0 36 -17 58t-49 38.5t-104 45.5q-99 40 -143 88t-44 121q0 55 30 97.5t84 66t124 23.5q57 0 103 -9t90 -29v-88q-87 39 -176 39q-72 0 -110 -26
t-38 -74q0 -33 16.5 -55.5t49 -40t96.5 -43.5q71 -29 112 -55t62.5 -63.5t21.5 -93.5q0 -91 -65 -141t-192 -50q-60 0 -118.5 10.5z" />
    <glyph glyph-name="scaron" unicode="&#x161;" horiz-adv-x="489" 
d="M56 701h103l84 -107l84 107h102l-142 -166h-89zM136 -2.5q-56 12.5 -88 33.5v86q39 -23 90 -37.5t99 -14.5q54 0 79 13t25 42q0 22 -11.5 35.5t-39 24.5t-82.5 26q-59 17 -93.5 34.5t-52 44.5t-17.5 70q0 69 54.5 104.5t146.5 35.5q48 0 94 -9t74 -25v-84
q-29 17 -71.5 27t-86.5 10q-53 0 -81 -13t-28 -46q0 -21 12 -34t38.5 -22.5t84.5 -24.5q91 -25 126.5 -59t35.5 -94q0 -62 -51 -99t-151 -37q-50 0 -106 12.5z" />
    <glyph glyph-name="uni0162" unicode="&#x162;" horiz-adv-x="587" 
d="M340 0l-22 -56q45 -6 68 -30.5t23 -64.5q0 -44 -36 -70.5t-98 -26.5q-55 0 -82 11l1 58q10 -5 26.5 -8t30.5 -3q64 0 64 46q0 55 -101 55l34 89h-6v613h-217v86h537v-86h-217v-613h-5z" />
    <glyph glyph-name="uni0163" unicode="&#x163;" horiz-adv-x="377" 
d="M329 -86.5q23 -24.5 23 -64.5q0 -44 -36 -70.5t-98 -26.5q-55 0 -82 11l1 58q10 -5 26.5 -8t30.5 -3q64 0 64 46q0 55 -101 55l32 83q-44 15 -67.5 54t-23.5 98v256h-73v78h73v144h102v-144h118v-78h-118v-249q0 -48 18.5 -68t67.5 -20q29 0 58 13v-80q-30 -11 -67 -12
l-16 -42q45 -6 68 -30.5z" />
    <glyph glyph-name="Tcaron" unicode="&#x164;" horiz-adv-x="587" 
d="M107 908h103l84 -107l84 107h102l-142 -166h-89zM242 613h-217v86h537v-86h-217v-613h-103v613z" />
    <glyph glyph-name="tcaron" unicode="&#x165;" horiz-adv-x="438" 
d="M334 784h106l-95 -200h-92zM137.5 27q-39.5 42 -39.5 119v256h-73v78h73v144h102v-144h118v-78h-118v-249q0 -48 18.5 -68t67.5 -20q29 0 58 13v-80q-38 -13 -94 -13q-73 0 -112.5 42z" />
    <glyph glyph-name="Tbar" unicode="&#x166;" horiz-adv-x="587" 
d="M241 292h-125v86h125v232h-216v89h537v-89h-216v-232h125v-86h-125v-292h-105v292z" />
    <glyph glyph-name="tbar" unicode="&#x167;" horiz-adv-x="375" 
d="M138.5 26q-39.5 41 -39.5 118v86h-74v60h74v119h-73v71h73v144h102v-144h119v-71h-119v-119h118v-60h-118v-74q0 -48 20.5 -69.5t65.5 -21.5q31 0 58 12v-78q-40 -14 -94 -14q-73 0 -112.5 41z" />
    <glyph glyph-name="Utilde" unicode="&#x168;" horiz-adv-x="697" 
d="M161 828q31 43 98 43q22 0 42.5 -6t52.5 -19q27 -12 47.5 -18.5t42.5 -6.5q30 0 54 11.5t43 39.5v-86q-30 -42 -97 -42q-25 0 -47.5 6.5t-51.5 19.5q-29 12 -47 18t-39 6q-29 0 -53 -11.5t-45 -40.5v86zM133 58.5q-73 73.5 -73 202.5v438h102v-442q0 -89 50 -134.5
t137 -45.5q86 0 136 45.5t50 134.5v442h102v-438q0 -128 -73 -202t-215 -74q-143 0 -216 73.5z" />
    <glyph glyph-name="utilde" unicode="&#x169;" horiz-adv-x="600" 
d="M113 621q31 43 98 43q22 0 42.5 -6t52.5 -19q27 -12 47.5 -18.5t42.5 -6.5q30 0 54 11.5t43 39.5v-86q-30 -42 -97 -42q-25 0 -47.5 6.5t-51.5 19.5q-29 12 -47 18t-39 6q-29 0 -53 -11.5t-45 -40.5v86zM109.5 37q-49.5 52 -49.5 139v304h101v-300q0 -115 115 -115
q101 0 158 91v324h101v-480h-98v68q-34 -43 -80.5 -63t-100.5 -20q-97 0 -146.5 52z" />
    <glyph glyph-name="Umacron" unicode="&#x16a;" horiz-adv-x="697" 
d="M192 831h312v-69h-312v69zM133 58.5q-73 73.5 -73 202.5v438h102v-442q0 -89 50 -134.5t137 -45.5q86 0 136 45.5t50 134.5v442h102v-438q0 -128 -73 -202t-215 -74q-143 0 -216 73.5z" />
    <glyph glyph-name="umacron" unicode="&#x16b;" horiz-adv-x="600" 
d="M141 624h312v-69h-312v69zM109.5 37q-49.5 52 -49.5 139v304h101v-300q0 -115 115 -115q101 0 158 91v324h101v-480h-98v68q-34 -43 -80.5 -63t-100.5 -20q-97 0 -146.5 52z" />
    <glyph glyph-name="Ubreve" unicode="&#x16c;" horiz-adv-x="697" 
d="M238.5 781q-40.5 39 -40.5 101h78q0 -34 19 -52.5t54 -18.5t54 18.5t19 52.5h77q0 -62 -40.5 -101t-109.5 -39q-70 0 -110.5 39zM133 58.5q-73 73.5 -73 202.5v438h102v-442q0 -89 50 -134.5t137 -45.5q86 0 136 45.5t50 134.5v442h102v-438q0 -128 -73 -202t-215 -74
q-143 0 -216 73.5z" />
    <glyph glyph-name="ubreve" unicode="&#x16d;" horiz-adv-x="600" 
d="M185.5 574q-40.5 39 -40.5 101h78q0 -34 19 -52.5t54 -18.5t54 18.5t19 52.5h77q0 -62 -40.5 -101t-109.5 -39q-70 0 -110.5 39zM109.5 37q-49.5 52 -49.5 139v304h101v-300q0 -115 115 -115q101 0 158 91v324h101v-480h-98v68q-34 -43 -80.5 -63t-100.5 -20
q-97 0 -146.5 52z" />
    <glyph glyph-name="Uring" unicode="&#x16e;" horiz-adv-x="697" 
d="M265.5 775.5q-33.5 33.5 -33.5 82.5q0 48 33.5 82t82.5 34q48 0 82 -34t34 -82q0 -49 -34 -82.5t-82 -33.5q-49 0 -82.5 33.5zM386 819.5q16 16.5 16 38.5t-16 38t-38 16t-38 -16t-16 -38q0 -23 16 -39t38 -16t38 16.5zM133 58.5q-73 73.5 -73 202.5v438h102v-442
q0 -89 50 -134.5t137 -45.5q86 0 136 45.5t50 134.5v442h102v-438q0 -128 -73 -202t-215 -74q-143 0 -216 73.5z" />
    <glyph glyph-name="uring" unicode="&#x16f;" horiz-adv-x="600" 
d="M214.5 568.5q-33.5 33.5 -33.5 82.5q0 48 33.5 82t82.5 34q48 0 82 -34t34 -82q0 -49 -34 -82.5t-82 -33.5q-49 0 -82.5 33.5zM335 612.5q16 16.5 16 38.5t-16 38t-38 16t-38 -16t-16 -38q0 -23 16 -39t38 -16t38 16.5zM109.5 37q-49.5 52 -49.5 139v304h101v-300
q0 -115 115 -115q101 0 158 91v324h101v-480h-98v68q-34 -43 -80.5 -63t-100.5 -20q-97 0 -146.5 52z" />
    <glyph glyph-name="Uhungarumlaut" unicode="&#x170;" horiz-adv-x="697" 
d="M266 913h102l-83 -172h-87zM473 913h102l-83 -172h-88zM133 58.5q-73 73.5 -73 202.5v438h102v-442q0 -89 50 -134.5t137 -45.5q86 0 136 45.5t50 134.5v442h102v-438q0 -128 -73 -202t-215 -74q-143 0 -216 73.5z" />
    <glyph glyph-name="uhungarumlaut" unicode="&#x171;" horiz-adv-x="601" 
d="M214 706h102l-83 -172h-87zM421 706h102l-83 -172h-88zM109.5 37q-49.5 52 -49.5 139v304h101v-300q0 -115 115 -115q101 0 158 91v324h101v-480h-98v68q-34 -43 -80.5 -63t-100.5 -20q-97 0 -146.5 52z" />
    <glyph glyph-name="Uogonek" unicode="&#x172;" horiz-adv-x="697" 
d="M637 699v-438q0 -118 -61.5 -190t-181.5 -84q-30 -22 -45 -44.5t-15 -48.5q0 -43 44 -43q25 0 48 10v-61q-33 -12 -77 -12q-46 0 -75 23t-29 67q0 32 15 60t41 49q-119 12 -180 84.5t-61 189.5v438h102v-442q0 -89 50 -134.5t137 -45.5q86 0 136 45.5t50 134.5v442h102z
" />
    <glyph glyph-name="uogonek" unicode="&#x173;" horiz-adv-x="585" 
d="M545 -139v-61q-33 -12 -77 -12q-46 0 -75 23t-29 67q0 37 20.5 69t53.5 53h-1v68q-34 -43 -80.5 -63t-100.5 -20q-97 0 -146.5 52t-49.5 139v304h101v-300q0 -115 115 -115q101 0 158 91v324h101v-480h-3q-40 -26 -59.5 -51t-19.5 -55q0 -43 44 -43q25 0 48 10z" />
    <glyph glyph-name="Wcircumflex" unicode="&#x174;" horiz-adv-x="1007" 
d="M459 907h89l142 -166h-102l-84 107l-84 -107h-103zM48 699h106l156 -531l154 531h80l153 -531l156 531h106l-204 -699h-97l-155 528l-154 -528h-97z" />
    <glyph glyph-name="wcircumflex" unicode="&#x175;" horiz-adv-x="818" 
d="M365 700h89l142 -166h-102l-84 107l-84 -107h-103zM45 480h103l108 -356l107 356h91l107 -356l108 356h104l-156 -480h-97l-111 358l-111 -358h-98z" />
    <glyph glyph-name="Ycircumflex" unicode="&#x176;" horiz-adv-x="706" 
d="M308 907h89l142 -166h-102l-84 107l-84 -107h-103zM302 265l-254 434h109l195 -337l198 337h108l-257 -434v-265h-99v265z" />
    <glyph glyph-name="ycircumflex" unicode="&#x177;" horiz-adv-x="587" 
d="M266 700h89l142 -166h-102l-84 107l-84 -107h-103zM77 -187v79q26 -10 64 -10q35 0 55 17.5t36 56.5l23 56l-210 468h104l160 -369l149 369h104l-216 -534q-30 -75 -71.5 -109.5t-107.5 -34.5q-54 0 -90 11z" />
    <glyph glyph-name="Ydieresis" unicode="&#x178;" horiz-adv-x="700" 
d="M182.5 769q-17.5 17 -17.5 41t17.5 41t41.5 17q23 0 40 -17t17 -41t-17 -41t-40 -17q-24 0 -41.5 17zM409.5 769q-17.5 17 -17.5 41t17.5 41t41.5 17q23 0 40 -17t17 -41t-17 -41t-40 -17q-24 0 -41.5 17zM299 265l-254 434h109l195 -337l198 337h108l-257 -434v-265h-99
v265z" />
    <glyph glyph-name="Zacute" unicode="&#x179;" horiz-adv-x="618" 
d="M308 913h107l-83 -172h-92zM45 69l387 544h-378v86h502v-70l-386 -544h403v-85h-528v69z" />
    <glyph glyph-name="zacute" unicode="&#x17a;" horiz-adv-x="499" 
d="M256 706h107l-83 -172h-92zM45 65l273 337h-267v78h393v-66l-273 -336h283v-78h-409v65z" />
    <glyph glyph-name="Zdotaccent" unicode="&#x17b;" horiz-adv-x="618" 
d="M257.5 758q-17.5 17 -17.5 41t17.5 41t41.5 17q23 0 40 -17t17 -41t-17 -41t-40 -17q-24 0 -41.5 17zM45 69l387 544h-378v86h502v-70l-386 -544h403v-85h-528v69z" />
    <glyph glyph-name="zdotaccent" unicode="&#x17c;" horiz-adv-x="499" 
d="M206.5 551q-17.5 17 -17.5 41t17.5 41t41.5 17q23 0 40 -17t17 -41t-17 -41t-40 -17q-24 0 -41.5 17zM45 65l273 337h-267v78h393v-66l-273 -336h283v-78h-409v65z" />
    <glyph glyph-name="Zcaron" unicode="&#x17d;" horiz-adv-x="618" 
d="M121 908h103l84 -107l84 107h102l-142 -166h-89zM45 69l387 544h-378v86h502v-70l-386 -544h403v-85h-528v69z" />
    <glyph glyph-name="zcaron" unicode="&#x17e;" horiz-adv-x="499" 
d="M66 701h103l84 -107l84 107h102l-142 -166h-89zM45 65l273 337h-267v78h393v-66l-273 -336h283v-78h-409v65z" />
    <glyph glyph-name="uni018F" unicode="&#x18f;" horiz-adv-x="823" 
d="M209.5 30q-82.5 45 -123.5 124t-41 179v52h624q-8 116 -87.5 178.5t-219.5 62.5q-66 0 -133.5 -12t-116.5 -32v87q46 19 119 32t144 13q127 0 217.5 -43t138 -124.5t47.5 -196.5q0 -111 -42.5 -193t-125 -127t-200.5 -45t-200.5 45zM600 135q65 64 70 172h-526
q4 -108 69.5 -172t194.5 -64q127 0 192 64z" />
    <glyph glyph-name="florin" unicode="&#x192;" horiz-adv-x="525" 
d="M-90 -218l14 83q24 -12 58 -12q49 0 74.5 22t36.5 70l97 462h-80l12 73h84l20 94q36 170 206 170q21 0 42.5 -3.5t35.5 -9.5l-14 -81q-25 11 -60 11q-47 0 -72.5 -21t-36.5 -72l-19 -88h133l-12 -73h-137l-99 -468q-18 -88 -69 -128.5t-137 -40.5q-47 0 -77 12z" />
    <glyph glyph-name="Ohorn" unicode="&#x1a0;" horiz-adv-x="862" 
d="M225 30.5q-84 45.5 -132 128.5t-48 190t48 190t132 129t188 46q73 0 137.5 -23.5t113.5 -66.5q46 1 66.5 21.5t20.5 65.5v36h94v-41q0 -56 -32 -99.5t-86 -57.5q54 -89 54 -200q0 -107 -48 -190t-132 -128.5t-188 -45.5t-188 45.5zM545.5 113q59.5 33 94.5 94t35 142
q0 80 -34 141t-93.5 94t-132.5 33q-74 0 -134 -33t-95 -94t-35 -141q0 -81 35 -142t94.5 -94t132.5 -33t132.5 33z" />
    <glyph glyph-name="ohorn" unicode="&#x1a1;" horiz-adv-x="677" 
d="M175.5 15.5q-61.5 30.5 -96 88t-34.5 135.5q0 77 34 135t96 89.5t143 31.5q55 0 102.5 -15t82.5 -44q37 7 55.5 29t18.5 57v36h83v-41q0 -49 -28 -87.5t-76 -54.5q36 -59 36 -136q0 -78 -34.5 -135.5t-96.5 -88t-143 -30.5t-142.5 30.5zM442 113q46 48 46 126
q0 81 -46 128t-124 47t-124 -47t-46 -128q0 -78 46 -126t124 -48t124 48z" />
    <glyph glyph-name="Uhorn" unicode="&#x1af;" horiz-adv-x="838" 
d="M133 58.5q-73 73.5 -73 202.5v438h105v-442q0 -89 48.5 -133t135.5 -44q86 0 134.5 44t48.5 133v442h105v-75q49 0 69 20t20 67v36h94v-41q0 -71 -47 -117t-136 -46v-282q0 -128 -73 -202t-215 -74q-143 0 -216 73.5z" />
    <glyph glyph-name="uhorn" unicode="&#x1b0;" horiz-adv-x="718" 
d="M108 36.5q-48 51.5 -48 137.5v306h101v-297q0 -118 115 -118q48 0 88.5 22.5t69.5 68.5v324h101v-46q40 2 61.5 24.5t21.5 60.5v39h83v-41q0 -64 -44.5 -106.5t-121.5 -44.5v-366h-98v71q-35 -45 -83 -65.5t-101 -20.5q-97 0 -145 51.5z" />
    <glyph glyph-name="uni01CD" unicode="&#x1cd;" horiz-adv-x="746" 
d="M187 908h103l84 -107l84 107h102l-142 -166h-89zM324 699h98l279 -699h-104l-70 174h-309l-68 -174h-105zM499 259l-126 327l-126 -327h252z" />
    <glyph glyph-name="uni01CE" unicode="&#x1ce;" horiz-adv-x="569" 
d="M114 701h103l84 -107l84 107h102l-142 -166h-89zM97.5 29.5q-52.5 44.5 -52.5 120.5q0 80 50.5 123.5t143.5 43.5q99 0 168 -40v25q0 57 -34.5 84.5t-108.5 27.5q-44 0 -85.5 -8.5t-74.5 -23.5v82q30 14 78 22.5t93 8.5q119 0 176.5 -52.5t57.5 -145.5v-297h-95v54
q-31 -34 -73.5 -51.5t-103.5 -17.5q-87 0 -139.5 44.5zM349 81q39 19 58 53v65q-65 42 -145 42q-58 0 -86.5 -22.5t-28.5 -68.5q0 -88 115 -88q48 0 87 19z" />
    <glyph glyph-name="uni01CF" unicode="&#x1cf;" horiz-adv-x="247" 
d="M-63 919h103l84 -107l84 107h102l-142 -166h-89zM84 699h103v-699h-103v699z" />
    <glyph glyph-name="uni01D0" unicode="&#x1d0;" horiz-adv-x="246" 
d="M-64 704h103l84 -107l84 107h102l-142 -166h-89zM84 480h102v-480h-102v480z" />
    <glyph glyph-name="uni01D1" unicode="&#x1d1;" horiz-adv-x="826" 
d="M227 908h103l84 -107l84 107h102l-142 -166h-89zM225 30.5q-84 45.5 -132 128.5t-48 190t48 190t132 129t188 46t188 -46t132 -129t48 -190t-48 -190t-132 -128.5t-188 -45.5t-188 45.5zM547.5 110.5q60.5 33.5 95.5 95t35 143.5q0 81 -34.5 142.5t-94.5 95t-134 33.5
q-75 0 -135.5 -33t-96 -95t-35.5 -143q0 -82 35 -143.5t95.5 -95t134.5 -33.5t134.5 33.5z" />
    <glyph glyph-name="uni01D2" unicode="&#x1d2;" horiz-adv-x="655" 
d="M150 701h103l84 -107l84 107h102l-142 -166h-89zM193.5 15.5q-61.5 30.5 -96 88t-34.5 135.5q0 77 34 135t96 89.5t143 31.5t143 -31.5t96.5 -89.5t34.5 -135q0 -78 -34.5 -135.5t-96.5 -88t-143 -30.5t-142.5 30.5zM460 113q46 48 46 126q0 81 -46 128t-124 47t-124 -47
t-46 -128q0 -78 46 -126t124 -48t124 48z" />
    <glyph glyph-name="uni01D3" unicode="&#x1d3;" horiz-adv-x="697" 
d="M162 908h103l84 -107l84 107h102l-142 -166h-89zM133 58.5q-73 73.5 -73 202.5v438h102v-442q0 -89 50 -134.5t137 -45.5q86 0 136 45.5t50 134.5v442h102v-438q0 -128 -73 -202t-215 -74q-143 0 -216 73.5z" />
    <glyph glyph-name="uni01D4" unicode="&#x1d4;" horiz-adv-x="600" 
d="M111 701h103l84 -107l84 107h102l-142 -166h-89zM109.5 37q-49.5 52 -49.5 139v304h101v-300q0 -115 115 -115q101 0 158 91v324h101v-480h-98v68q-34 -43 -80.5 -63t-100.5 -20q-97 0 -146.5 52z" />
    <glyph glyph-name="uni01D5" unicode="&#x1d5;" horiz-adv-x="697" 
d="M192 990h312v-69h-312v69zM193.5 758q-17.5 17 -17.5 41t17.5 41t41.5 17q23 0 40 -17t17 -41t-17 -41t-40 -17q-24 0 -41.5 17zM420.5 758q-17.5 17 -17.5 41t17.5 41t41.5 17q23 0 40 -17t17 -41t-17 -41t-40 -17q-24 0 -41.5 17zM133 58.5q-73 73.5 -73 202.5v438h102
v-442q0 -89 50 -134.5t137 -45.5q86 0 136 45.5t50 134.5v442h102v-438q0 -128 -73 -202t-215 -74q-143 0 -216 73.5z" />
    <glyph glyph-name="uni01D6" unicode="&#x1d6;" horiz-adv-x="600" 
d="M141 779h312v-69h-312v69zM143.5 551q-17.5 17 -17.5 41t17.5 41t41.5 17q23 0 40 -17t17 -41t-17 -41t-40 -17q-24 0 -41.5 17zM370.5 551q-17.5 17 -17.5 41t17.5 41t41.5 17q23 0 40 -17t17 -41t-17 -41t-40 -17q-24 0 -41.5 17zM109.5 37q-49.5 52 -49.5 139v304h101
v-300q0 -115 115 -115q101 0 158 91v324h101v-480h-98v68q-34 -43 -80.5 -63t-100.5 -20q-97 0 -146.5 52z" />
    <glyph glyph-name="uni01D7" unicode="&#x1d7;" horiz-adv-x="697" 
d="M365 971h90l-70 -125h-77zM191.5 766q-17.5 17 -17.5 41t17.5 41t40.5 17t40.5 -17t17.5 -41t-17.5 -41t-40.5 -17t-40.5 17zM428.5 766q-17.5 17 -17.5 41t17.5 41t40.5 17t40.5 -17t17.5 -41t-17.5 -41t-40.5 -17t-40.5 17zM133 58.5q-73 73.5 -73 202.5v438h102v-442
q0 -89 50 -134.5t137 -45.5q86 0 136 45.5t50 134.5v442h102v-438q0 -128 -73 -202t-215 -74q-143 0 -216 73.5z" />
    <glyph glyph-name="uni01D8" unicode="&#x1d8;" horiz-adv-x="600" 
d="M307 757h90l-70 -125h-77zM133.5 552q-17.5 17 -17.5 41t17.5 41t40.5 17t40.5 -17t17.5 -41t-17.5 -41t-40.5 -17t-40.5 17zM370.5 552q-17.5 17 -17.5 41t17.5 41t40.5 17t40.5 -17t17.5 -41t-17.5 -41t-40.5 -17t-40.5 17zM109.5 37q-49.5 52 -49.5 139v304h101v-300
q0 -115 115 -115q101 0 158 91v324h101v-480h-98v68q-34 -43 -80.5 -63t-100.5 -20q-97 0 -146.5 52z" />
    <glyph glyph-name="uni01D9" unicode="&#x1d9;" horiz-adv-x="697" 
d="M193 968h85l71 -78l71 78h85l-119 -125h-74zM188.5 758q-17.5 17 -17.5 41t17.5 41t40.5 17t40.5 -17t17.5 -41t-17.5 -41t-40.5 -17t-40.5 17zM425.5 758q-17.5 17 -17.5 41t17.5 41t40.5 17t40.5 -17t17.5 -41t-17.5 -41t-40.5 -17t-40.5 17zM133 58.5
q-73 73.5 -73 202.5v438h102v-442q0 -89 50 -134.5t137 -45.5q86 0 136 45.5t50 134.5v442h102v-438q0 -128 -73 -202t-215 -74q-143 0 -216 73.5z" />
    <glyph glyph-name="uni01DA" unicode="&#x1da;" horiz-adv-x="600" 
d="M135 761h85l71 -78l71 78h85l-119 -125h-74zM130.5 551q-17.5 17 -17.5 41t17.5 41t40.5 17t40.5 -17t17.5 -41t-17.5 -41t-40.5 -17t-40.5 17zM367.5 551q-17.5 17 -17.5 41t17.5 41t40.5 17t40.5 -17t17.5 -41t-17.5 -41t-40.5 -17t-40.5 17zM109.5 37
q-49.5 52 -49.5 139v304h101v-300q0 -115 115 -115q101 0 158 91v324h101v-480h-98v68q-34 -43 -80.5 -63t-100.5 -20q-97 0 -146.5 52z" />
    <glyph glyph-name="uni01DB" unicode="&#x1db;" horiz-adv-x="697" 
d="M246 963h90l57 -125h-77zM191.5 758q-17.5 17 -17.5 41t17.5 41t40.5 17t40.5 -17t17.5 -41t-17.5 -41t-40.5 -17t-40.5 17zM428.5 758q-17.5 17 -17.5 41t17.5 41t40.5 17t40.5 -17t17.5 -41t-17.5 -41t-40.5 -17t-40.5 17zM133 58.5q-73 73.5 -73 202.5v438h102v-442
q0 -89 50 -134.5t137 -45.5q86 0 136 45.5t50 134.5v442h102v-438q0 -128 -73 -202t-215 -74q-143 0 -216 73.5z" />
    <glyph glyph-name="uni01DC" unicode="&#x1dc;" horiz-adv-x="600" 
d="M190 756h90l57 -125h-77zM135.5 551q-17.5 17 -17.5 41t17.5 41t40.5 17t40.5 -17t17.5 -41t-17.5 -41t-40.5 -17t-40.5 17zM372.5 551q-17.5 17 -17.5 41t17.5 41t40.5 17t40.5 -17t17.5 -41t-17.5 -41t-40.5 -17t-40.5 17zM109.5 37q-49.5 52 -49.5 139v304h101v-300
q0 -115 115 -115q101 0 158 91v324h101v-480h-98v68q-34 -43 -80.5 -63t-100.5 -20q-97 0 -146.5 52z" />
    <glyph glyph-name="Gcaron" unicode="&#x1e6;" horiz-adv-x="716" 
d="M190 919h103l84 -107l84 107h102l-142 -166h-89zM223 30q-84 45 -131 127.5t-47 191.5t47 192t131 128t192 45q145 0 241 -72v-98q-87 76 -232 76q-79 0 -142 -33t-98.5 -94.5t-35.5 -143.5t35 -144t97 -95t140 -33q91 0 149 37v183h-133v83h235v-320q-47 -39 -110.5 -57
t-145.5 -18q-108 0 -192 45z" />
    <glyph glyph-name="gcaron" unicode="&#x1e7;" horiz-adv-x="660" 
d="M110 707h103l84 -107l84 107h102l-142 -166h-89zM220.5 -222q-46.5 8 -78.5 23v83q75 -34 174 -34q93 0 135.5 40.5t42.5 122.5v51q-66 -79 -194 -79q-73 0 -131 32t-91 90t-33 133q0 76 32.5 133.5t90 89.5t129.5 32q67 0 113.5 -19.5t86.5 -64.5v69h98v-456
q0 -123 -68.5 -188.5t-210.5 -65.5q-49 0 -95.5 8zM429.5 98q47.5 33 64.5 88v108q-19 56 -65.5 88t-108.5 32q-49 0 -88.5 -21.5t-62 -61.5t-22.5 -91q0 -52 22.5 -91.5t62 -61.5t88.5 -22q62 0 109.5 33z" />
    <glyph glyph-name="Aringacute" unicode="&#x1fa;" horiz-adv-x="746" 
d="M418 912h-92l68 138h107zM701 0h-104l-70 174h-309l-68 -174h-105l269 675q-26 14 -41.5 41t-15.5 59q0 48 33.5 82t82.5 34q48 0 82 -34t34 -82q0 -32 -15.5 -58.5t-41.5 -41.5zM335 813q-16 -16 -16 -38q0 -23 16 -39t38 -16t38 16.5t16 38.5t-16 38t-38 16t-38 -16z
M499 259l-126 327l-126 -327h252z" />
    <glyph glyph-name="aringacute" unicode="&#x1fb;" horiz-adv-x="569" 
d="M319 937h107l-83 -138h-92zM214.5 568.5q-33.5 33.5 -33.5 82.5q0 48 33.5 82t82.5 34q48 0 82 -34t34 -82q0 -49 -34 -82.5t-82 -33.5q-49 0 -82.5 33.5zM335 612.5q16 16.5 16 38.5t-16 38t-38 16t-38 -16t-16 -38q0 -23 16 -39t38 -16t38 16.5zM97.5 29.5
q-52.5 44.5 -52.5 120.5q0 80 50.5 123.5t143.5 43.5q99 0 168 -40v25q0 57 -34.5 84.5t-108.5 27.5q-44 0 -85.5 -8.5t-74.5 -23.5v82q30 14 78 22.5t93 8.5q119 0 176.5 -52.5t57.5 -145.5v-297h-95v54q-31 -34 -73.5 -51.5t-103.5 -17.5q-87 0 -139.5 44.5zM349 81
q39 19 58 53v65q-65 42 -145 42q-58 0 -86.5 -22.5t-28.5 -68.5q0 -88 115 -88q48 0 87 19z" />
    <glyph glyph-name="AEacute" unicode="&#x1fc;" horiz-adv-x="922" 
d="M579 913h107l-83 -172h-92zM388 699h489v-86h-320v-221h229v-85h-229v-222h320v-85h-422v179h-215l-87 -179h-108zM455 259v348h-8l-166 -348h174z" />
    <glyph glyph-name="aeacute" unicode="&#x1fd;" horiz-adv-x="972" 
d="M495 706h107l-83 -172h-92zM97.5 29q-52.5 44 -52.5 121q0 80 50.5 123.5t143.5 43.5q99 0 168 -40v25q0 57 -34.5 84.5t-108.5 27.5q-44 0 -85.5 -8.5t-74.5 -23.5v82q30 14 78 22.5t93 8.5q132 0 192 -80q34 38 85 59t116 21q83 0 141.5 -31.5t88 -87t29.5 -126.5v-50
h-420q5 -69 56.5 -102t140.5 -33q47 0 93.5 8.5t82.5 22.5v-81q-32 -13 -84.5 -21.5t-103.5 -8.5q-148 0 -227 89q-39 -43 -93 -66t-131 -23q-91 0 -143.5 44zM831 271q-2 68 -44 105.5t-120 37.5q-76 0 -117 -39t-43 -104h324zM348.5 80.5q38.5 18.5 58.5 52.5v66
q-65 42 -145 42q-58 0 -86.5 -22.5t-28.5 -68.5q0 -88 115 -88q48 0 86.5 18.5z" />
    <glyph glyph-name="Oslashacute" unicode="&#x1fe;" horiz-adv-x="826" 
d="M431 920h107l-83 -172h-93zM236 25q-88 45 -139.5 129.5t-51.5 194.5q0 107 48 190t132 129t188 46q48 0 95 -11l33 81h100l-46 -113q87 -45 136.5 -129t49.5 -193q0 -107 -48 -190t-132 -128.5t-188 -45.5q-42 0 -90 10l-32 -81h-100zM472 614q-29 6 -59 6
q-75 0 -135 -33.5t-95 -95t-35 -142.5q0 -79 33 -139.5t90 -95.5zM547.5 110.5q60.5 33.5 95.5 95t35 143.5q0 77 -32 136.5t-87 94.5l-201 -498q22 -5 55 -5q74 0 134.5 33.5z" />
    <glyph glyph-name="oslashacute" unicode="&#x1ff;" horiz-adv-x="637" 
d="M311 706h107l-83 -172h-92zM176 15q-62 31 -96.5 88.5t-34.5 135.5q0 77 34 135t96 89.5t143 31.5q18 0 50 -4l30 75h100l-41 -101q64 -31 99.5 -89.5t35.5 -136.5t-34.5 -135.5t-96.5 -88t-143 -30.5q-31 0 -52 4l-30 -75h-100zM336 413q-6 1 -18 1q-78 0 -124 -47
t-46 -128q0 -46 16 -82t46 -59zM442 113q46 48 46 126q0 48 -16.5 84.5t-47.5 59.5l-127 -317q7 -1 21 -1q78 0 124 48z" />
    <glyph glyph-name="Scommaaccent" unicode="&#x218;" horiz-adv-x="561" 
d="M140.5 -4.5q-58.5 10.5 -95.5 28.5v92q96 -45 207 -45q156 0 156 105q0 36 -17 58t-49 38.5t-104 45.5q-99 40 -143 88t-44 121q0 55 30 97.5t84 66t124 23.5q57 0 103 -9t90 -29v-88q-87 39 -176 39q-72 0 -110 -26t-38 -74q0 -33 16.5 -55.5t49 -40t96.5 -43.5
q71 -29 112 -55t62.5 -63.5t21.5 -93.5q0 -91 -65 -141t-192 -50q-60 0 -118.5 10.5zM222 -60h106l-95 -199h-93z" />
    <glyph glyph-name="scommaaccent" unicode="&#x219;" horiz-adv-x="489" 
d="M136 -2.5q-56 12.5 -88 33.5v86q39 -23 90 -37.5t99 -14.5q54 0 79 13t25 42q0 22 -11.5 35.5t-39 24.5t-82.5 26q-59 17 -93.5 34.5t-52 44.5t-17.5 70q0 69 54.5 104.5t146.5 35.5q48 0 94 -9t74 -25v-84q-29 17 -71.5 27t-86.5 10q-53 0 -81 -13t-28 -46q0 -21 12 -34
t38.5 -22.5t84.5 -24.5q91 -25 126.5 -59t35.5 -94q0 -62 -51 -99t-151 -37q-50 0 -106 12.5zM195 -60h106l-95 -199h-93z" />
    <glyph glyph-name="uni021A" unicode="&#x21a;" horiz-adv-x="587" 
d="M242 613h-217v86h537v-86h-217v-613h-103v613zM238 -60h106l-95 -200h-92z" />
    <glyph glyph-name="uni021B" unicode="&#x21b;" horiz-adv-x="374" 
d="M137.5 27q-39.5 42 -39.5 119v256h-73v78h73v144h102v-144h118v-78h-118v-249q0 -48 18.5 -68t67.5 -20q29 0 58 13v-80q-38 -13 -94 -13q-73 0 -112.5 42zM186 -60h106l-95 -200h-92z" />
    <glyph glyph-name="uni0237" unicode="&#x237;" horiz-adv-x="241" 
d="M-70 -220v83q26 -12 60 -12q45 0 64.5 21.5t19.5 69.5v538h102v-545q0 -83 -46 -124.5t-124 -41.5q-45 0 -76 11z" />
    <glyph glyph-name="uni0251" unicode="&#x251;" horiz-adv-x="660" 
d="M167.5 16.5q-57.5 31.5 -90 89t-32.5 133.5q0 75 32.5 133t90 90.5t129.5 32.5q130 0 197 -79v64h101v-480h-98v70q-40 -44 -87.5 -64.5t-112.5 -20.5q-72 0 -129.5 31.5zM428.5 97.5q46.5 32.5 65.5 87.5v108q-17 55 -64.5 88t-109.5 33q-49 0 -88.5 -22t-62 -62
t-22.5 -91t22.5 -91t62 -61.5t88.5 -21.5q62 0 108.5 32.5z" />
    <glyph glyph-name="uni0259" unicode="&#x259;" horiz-adv-x="608" 
d="M162 16.5q-58 31.5 -87.5 87t-29.5 125.5v50h422q-5 69 -57.5 102.5t-142.5 33.5q-46 0 -93 -8.5t-83 -22.5v81q32 13 84.5 21.5t103.5 8.5q133 0 208.5 -67t75.5 -187q0 -118 -67.5 -187t-192.5 -69q-83 0 -141 31.5zM423 104.5q42 39.5 44 104.5h-327q2 -68 44.5 -106
t120.5 -38q76 0 118 39.5z" />
    <glyph glyph-name="uni02BB" unicode="&#x2bb;" horiz-adv-x="256" 
d="M123 714h88l-67 -195h-99z" />
    <glyph glyph-name="uni02BC" unicode="&#x2bc;" horiz-adv-x="256" 
d="M111 714h100l-79 -195h-87z" />
    <glyph glyph-name="uni02BE" unicode="&#x2be;" 
d="M-71 608q35 0 53 14.5t18 47.5t-18 47.5t-53 14.5v73q65 0 104.5 -34t39.5 -101t-39.5 -101t-104.5 -34v73z" />
    <glyph glyph-name="uni02BF" unicode="&#x2bf;" 
d="M-31.5 569q-39.5 34 -39.5 101t39.5 101t104.5 34v-73q-35 0 -53 -14.5t-18 -47.5t18 -47.5t53 -14.5v-73q-65 0 -104.5 34z" />
    <glyph glyph-name="circumflex" unicode="&#x2c6;" horiz-adv-x="463" 
d="M187 761h89l142 -166h-102l-84 106l-84 -106h-103z" />
    <glyph glyph-name="caron" unicode="&#x2c7;" horiz-adv-x="463" 
d="M45 764h103l84 -107l84 107h102l-142 -166h-89z" />
    <glyph glyph-name="uni02C8" unicode="&#x2c8;" 
d="M-42 756h82v-174h-82v174z" />
    <glyph glyph-name="uni02C9" unicode="&#x2c9;" horiz-adv-x="589" 
d="M135 674h319v-70h-319v70z" />
    <glyph glyph-name="uni02CA" unicode="&#x2ca;" 
d="M-20 760h107l-83 -172h-93z" />
    <glyph glyph-name="uni02CB" unicode="&#x2cb;" 
d="M-6 760h92l-68 -172h-107z" />
    <glyph glyph-name="uni02CC" unicode="&#x2cc;" 
d="M-42 -64h82v-173h-82v173z" />
    <glyph glyph-name="breve" unicode="&#x2d8;" horiz-adv-x="390" 
d="M85.5 612q-40.5 39 -40.5 101h77q0 -34 19 -52.5t54 -18.5t54 18.5t19 52.5h77q0 -62 -40.5 -101t-109.5 -39t-109.5 39z" />
    <glyph glyph-name="dotaccent" unicode="&#x2d9;" horiz-adv-x="206" 
d="M62.5 602q-17.5 17 -17.5 41t17.5 41t40.5 17t40.5 -17t17.5 -41t-17.5 -41t-40.5 -17t-40.5 17z" />
    <glyph glyph-name="ring" unicode="&#x2da;" horiz-adv-x="322" 
d="M78.5 578.5q-33.5 33.5 -33.5 82.5q0 48 33.5 82t82.5 34q48 0 82 -34t34 -82q0 -49 -34 -82.5t-82 -33.5q-49 0 -82.5 33.5zM199 622.5q16 16.5 16 38.5t-16 38t-38 16t-38 -16t-16 -38q0 -23 16 -39t38 -16t38 16.5z" />
    <glyph glyph-name="ogonek" unicode="&#x2db;" horiz-adv-x="271" 
d="M74.5 -189q-29.5 23 -29.5 67q0 37 20.5 69t53.5 53h94q-40 -26 -59.5 -51t-19.5 -55q0 -43 45 -43q24 0 47 10v-61q-33 -12 -77 -12q-45 0 -74.5 23z" />
    <glyph glyph-name="tilde" unicode="&#x2dc;" horiz-adv-x="470" 
d="M45 685q31 43 97 43q22 0 42.5 -6t52.5 -19q27 -12 47.5 -18.5t42.5 -6.5q30 0 54 11.5t44 39.5v-86q-30 -42 -98 -42q-25 0 -47.5 6.5t-51.5 19.5q-29 12 -47 18t-39 6q-29 0 -52.5 -12t-44.5 -40v86z" />
    <glyph glyph-name="hungarumlaut" unicode="&#x2dd;" horiz-adv-x="467" 
d="M114 753h101l-83 -172h-87zM320 753h102l-83 -172h-87z" />
    <glyph glyph-name="gravecomb" unicode="&#x300;" 
d="M-463 760h107l69 -172h-93z" />
    <glyph glyph-name="acutecomb" unicode="&#x301;" 
d="M-280 760h107l-83 -172h-92z" />
    <glyph glyph-name="uni0302" unicode="&#x302;" 
d="M-45 758h89l142 -166h-102l-84 107l-84 -107h-103z" />
    <glyph glyph-name="tildecomb" unicode="&#x303;" 
d="M-499 685q31 43 98 43q22 0 42.5 -6t52.5 -19q27 -12 47.5 -18.5t42.5 -6.5q30 0 54 11.5t43 39.5v-86q-30 -42 -97 -42q-25 0 -47.5 6.5t-51.5 19.5q-29 12 -47 18t-39 6q-29 0 -53 -11.5t-45 -40.5v86z" />
    <glyph glyph-name="uni0304" unicode="&#x304;" 
d="M-151 673h312v-69h-312v69z" />
    <glyph glyph-name="uni0306" unicode="&#x306;" 
d="M-110.5 612q-40.5 39 -40.5 101h78q0 -34 19 -52.5t54 -18.5t54 18.5t19 52.5h77q0 -62 -40.5 -101t-109.5 -39q-70 0 -110.5 39z" />
    <glyph glyph-name="uni0307" unicode="&#x307;" 
d="M-41.5 602q-17.5 17 -17.5 41t17.5 41t41.5 17q23 0 40 -17t17 -41t-17 -41t-40 -17q-24 0 -41.5 17z" />
    <glyph glyph-name="uni0308" unicode="&#x308;" 
d="M-155.5 602q-17.5 17 -17.5 41t17.5 41t41.5 17q23 0 40 -17t17 -41t-17 -41t-40 -17q-24 0 -41.5 17zM71.5 602q-17.5 17 -17.5 41t17.5 41t41.5 17q23 0 40 -17t17 -41t-17 -41t-40 -17q-24 0 -41.5 17z" />
    <glyph glyph-name="hookabovecomb" unicode="&#x309;" 
d="M-397 637q47 0 69.5 12.5t22.5 40.5q0 23 -15.5 33.5t-50.5 10.5q-13 0 -33.5 -3.5t-29.5 -7.5v55q16 5 40 9t47 4q64 0 97.5 -26.5t33.5 -70.5q0 -37 -24 -62.5t-68 -31.5v-34h-89v71z" />
    <glyph glyph-name="uni030A" unicode="&#x30a;" 
d="M-82.5 578.5q-33.5 33.5 -33.5 82.5q0 48 33.5 82t82.5 34q48 0 82 -34t34 -82q0 -49 -34 -82.5t-82 -33.5q-49 0 -82.5 33.5zM38 622.5q16 16.5 16 38.5t-16 38t-38 16t-38 -16t-16 -38q0 -23 16 -39t38 -16t38 16.5z" />
    <glyph glyph-name="uni030B" unicode="&#x30b;" 
d="M-130 760h102l-83 -172h-87zM77 760h102l-83 -172h-88z" />
    <glyph glyph-name="uni030C" unicode="&#x30c;" 
d="M-187 758h103l84 -107l84 107h102l-142 -166h-89z" />
    <glyph glyph-name="uni031B" unicode="&#x31b;" 
d="M-84 626q45 0 69 23t24 62v36h81v-41q0 -65 -46.5 -108t-127.5 -43v71z" />
    <glyph glyph-name="dotbelowcomb" unicode="&#x323;" 
d="M-41.5 -149q-17.5 17 -17.5 41t17.5 41t41.5 17q23 0 40 -17t17 -41t-17 -41t-40 -17q-24 0 -41.5 17z" />
    <glyph glyph-name="uni0324" unicode="&#x324;" 
d="M-149.5 -149q-17.5 17 -17.5 41t17.5 41t40.5 17t40.5 -17t17.5 -41t-17.5 -41t-40.5 -17t-40.5 17zM66.5 -149q-17.5 17 -17.5 41t17.5 41t40.5 17t40.5 -17t17.5 -41t-17.5 -41t-40.5 -17t-40.5 17z" />
    <glyph glyph-name="uni0326" unicode="&#x326;" 
d="M-151 -60h106l-95 -200h-92z" />
    <glyph glyph-name="uni0327" unicode="&#x327;" 
d="M-103 -237l1 58q10 -5 26.5 -8t30.5 -3q64 0 64 46q0 55 -101 55l34 89h92l-22 -56q45 -6 68 -30.5t23 -64.5q0 -44 -36 -70.5t-98 -26.5q-55 0 -82 11z" />
    <glyph glyph-name="uni0328" unicode="&#x328;" 
d="M-58 -189q-29 23 -29 67q0 37 20.5 69t53.5 53h94q-40 -26 -59.5 -51t-19.5 -55q0 -43 44 -43q25 0 48 10v-61q-33 -12 -77 -12q-46 0 -75 23z" />
    <glyph glyph-name="uni032E" unicode="&#x32e;" 
d="M-110.5 -163q-40.5 39 -40.5 102h78q0 -34 19.5 -53t53.5 -19t53.5 19t19.5 53h77q0 -63 -40.5 -102t-109.5 -39q-70 0 -110.5 39z" />
    <glyph glyph-name="uni0331" unicode="&#x331;" 
d="M-152 -71h314v-70h-314v70z" />
    <glyph glyph-name="uni0394" unicode="&#x394;" horiz-adv-x="687" 
d="M45 73l252 641h93l252 -641v-73h-597v73zM545 84l-202 517l-202 -517h404z" />
    <glyph glyph-name="uni03A9" unicode="&#x3a9;" horiz-adv-x="820" 
d="M45 85h139q-63 45 -100.5 115.5t-37.5 157.5q0 103 45 184t127.5 126.5t191.5 45.5q108 0 190.5 -45.5t128 -126.5t45.5 -184q0 -87 -37.5 -157t-100.5 -116h139v-85h-284v80q93 52 136.5 118.5t43.5 159.5q0 77 -33.5 136.5t-93 92.5t-134.5 33t-134.5 -33t-93 -92.5
t-33.5 -136.5q0 -93 43 -159.5t136 -118.5v-80h-283v85z" />
    <glyph glyph-name="uni03BC" unicode="&#x3bc;" horiz-adv-x="605" 
d="M65 480h101v-303q0 -112 115 -112q101 0 158 91v324h101v-480h-98v68q-34 -43 -80.5 -63t-100.5 -20q-57 0 -95 22v-226h-101v699z" />
    <glyph glyph-name="pi" unicode="&#x3c0;" horiz-adv-x="697" 
d="M423 153v241h-191v-394h-103v394h-94v86h585v-86h-94v-238q0 -47 17 -68t60 -21q36 0 59 11v-82q-33 -11 -78 -11q-161 0 -161 168z" />
    <glyph glyph-name="uni0E01" unicode="&#xe01;" horiz-adv-x="640" 
d="M95 333l-50 81q53 67 121 101.5t161 34.5q120 0 184 -54.5t64 -152.5v-343h-102v335q0 69 -36.5 101.5t-109.5 32.5q-55 0 -97 -16.5t-76 -52.5l43 -67v-333h-102v333z" />
    <glyph glyph-name="uni0E02" unicode="&#xe02;" horiz-adv-x="582" 
d="M160 10q-53 25 -81.5 70.5t-28.5 104.5v34q0 34 14 62t41 65q19 25 28 41.5t9 31.5q0 19 -9.5 27t-31.5 8h-56v81h105q44 0 69.5 -25.5t25.5 -67.5q0 -29 -12 -53.5t-36 -59.5q-24 -36 -34.5 -58t-10.5 -48v-37q0 -58 33.5 -89.5t99.5 -31.5t98 32.5t32 91.5v346h102
v-329q0 -103 -61 -162t-171 -59q-72 0 -125 25z" />
    <glyph glyph-name="uni0E03" unicode="&#xe03;" horiz-adv-x="589" 
d="M166 9.5q-53 24.5 -81 69.5t-28 104v39q0 32 17 60t49 68q21 25 31 40t10 28v3q-20 -11 -48 -11q-34 0 -52.5 19.5t-18.5 57.5v48h73v-35q0 -16 7.5 -23.5t24.5 -7.5q20 0 33 13v53h79v-91q0 -32 -15 -61t-42 -65q-24 -33 -35 -54.5t-11 -42.5v-36q0 -57 33 -88.5
t99 -31.5q67 0 99 32.5t32 91.5v346h102v-329q0 -103 -61 -162t-172 -59q-72 0 -125 24.5z" />
    <glyph glyph-name="uni0E04" unicode="&#xe04;" horiz-adv-x="639" 
d="M65 331q0 104 68 161.5t187 57.5q118 0 186 -57t68 -162v-331h-102v334q0 68 -40 101.5t-112 33.5q-73 0 -113 -33.5t-40 -101.5v-102q13 24 41 38.5t66 14.5h80v-84h-88q-42 0 -70.5 -29.5t-28.5 -67.5v-104h-102v331z" />
    <glyph glyph-name="uni0E05" unicode="&#xe05;" horiz-adv-x="639" 
d="M65 367q0 86 33 134.5t111 48.5q40 0 68 -16t42 -45q15 30 43.5 45.5t67.5 15.5q78 0 111 -48.5t33 -134.5v-367h-102v381q0 46 -12.5 67t-47.5 21q-27 0 -41 -14.5t-22 -47.5h-60q-7 33 -20.5 47.5t-41.5 14.5q-34 0 -47 -21t-13 -66v-150q13 24 41 38.5t66 14.5h80v-84
h-88q-42 0 -70.5 -29t-28.5 -68v-104h-102v367z" />
    <glyph glyph-name="uni0E06" unicode="&#xe06;" horiz-adv-x="620" 
d="M244.5 6.5q-50.5 21.5 -89.5 65.5v-72h-98v212q0 34 17 64t50 73q20 24 30 40.5t10 28.5v3q-20 -11 -48 -11q-34 0 -52.5 19.5t-18.5 57.5v48h73v-35q0 -16 7.5 -23.5t24.5 -7.5q20 0 33 13v53h79v-93q0 -31 -14.5 -59t-41.5 -67q-25 -36 -36 -57.5t-11 -44.5v-57
q59 -92 162 -92q132 0 132 121v349h102v-353q0 -87 -55 -142t-152 -55q-53 0 -103.5 21.5z" />
    <glyph glyph-name="uni0E07" unicode="&#xe07;" horiz-adv-x="619" 
d="M45 468h102l127 -388q94 0 145 52t51 147q0 94 -35 142t-112 48q-36 0 -70 -9v79q40 11 87 11q114 0 174 -72t60 -199q0 -87 -37.5 -150t-101.5 -96t-142 -33h-96z" />
    <glyph glyph-name="uni0E08" unicode="&#xe08;" horiz-adv-x="587" 
d="M72 294h101l52 -214q97 0 155.5 52.5t58.5 145.5q0 101 -48 146t-158 45q-50 0 -101.5 -9.5t-86.5 -25.5v80q37 17 90.5 26.5t109.5 9.5q142 0 219.5 -68t77.5 -204q0 -79 -40 -142.5t-108.5 -99.5t-150.5 -36h-99z" />
    <glyph glyph-name="uni0E09" unicode="&#xe09;" horiz-adv-x="608" 
d="M109.5 36.5q-50.5 51.5 -50.5 141.5v128h102v-122q0 -60 30.5 -89.5t93.5 -29.5q102 0 156 92v132q0 93 -43 136.5t-149 43.5q-54 0 -111 -9.5t-93 -25.5v80q37 16 96.5 26t116.5 10q148 0 216.5 -64.5t68.5 -192.5v-293h-98v72q-33 -44 -82.5 -65.5t-106.5 -21.5
q-96 0 -146.5 51.5z" />
    <glyph glyph-name="uni0E0A" unicode="&#xe0a;" horiz-adv-x="584" 
d="M163 10q-54 25 -83.5 70.5t-29.5 104.5v34q0 34 15 63.5t41 64.5q19 26 27.5 42t8.5 30q0 19 -9.5 27t-31.5 8h-56v81h105q44 0 69.5 -25.5t25.5 -67.5q0 -29 -12 -53.5t-36 -59.5q-24 -36 -34.5 -58t-10.5 -48v-37q0 -57 36 -89t100 -32q68 0 106 37t38 109t-30 108
t-88 36v55l107 140h110l-113 -149q61 -23 88.5 -70.5t27.5 -119.5q0 -69 -30.5 -120t-86.5 -78.5t-129 -27.5q-71 0 -125 25z" />
    <glyph glyph-name="uni0E0B" unicode="&#xe0b;" horiz-adv-x="591" 
d="M170 10q-54 25 -83.5 70t-29.5 103v39q0 32 17 60t49 68q21 25 31 40t10 28v3q-20 -11 -48 -11q-34 0 -52.5 19.5t-18.5 57.5v48h73v-35q0 -16 7.5 -23.5t24.5 -7.5q20 0 33 13v53h79v-91q0 -32 -15 -61t-42 -65q-24 -33 -35 -54.5t-11 -42.5v-36q0 -56 36 -88t100 -32
q67 0 105.5 37t38.5 109t-30 108t-88 36v55l106 140h111l-114 -149q61 -23 89 -70.5t28 -119.5q0 -68 -31 -119.5t-86.5 -79t-128.5 -27.5q-71 0 -125 25z" />
    <glyph glyph-name="uni0E0C" unicode="&#xe0c;" horiz-adv-x="996" 
d="M635.5 5.5q-47.5 20.5 -84.5 64.5v-70h-98v335q0 69 -33.5 101.5t-102.5 32.5q-52 0 -90.5 -16t-72.5 -53l43 -67v-198q0 -28 11.5 -39t38.5 -11h56v-85h-106q-50 0 -76 28t-26 77v228l-50 81q53 67 118 101.5t154 34.5q116 0 176.5 -54.5t60.5 -152.5v-186
q59 -92 153 -92q63 0 92.5 30t29.5 91v349h102v-353q0 -88 -52 -142.5t-145 -54.5q-51 0 -98.5 20.5z" />
    <glyph glyph-name="uni0E0D" unicode="&#xe0d;" horiz-adv-x="1005" 
d="M597 -86.5q-53 11.5 -84 30.5v85q84 -47 190 -47q71 0 112 19t41 57q0 30 -19 50q-27 -17 -65.5 -27t-80.5 -10q-115 0 -176.5 59t-61.5 159v46q0 69 -33.5 101.5t-102.5 32.5q-52 0 -90.5 -16t-72.5 -53l43 -67v-198q0 -28 11.5 -39t38.5 -11h56v-85h-106q-50 0 -76 28
t-26 77v228l-50 81q53 67 118 101.5t154 34.5q116 0 176.5 -54.5t60.5 -152.5v-50q0 -69 32 -105.5t105 -36.5t109.5 38.5t36.5 105.5v240h102v-246q0 -75 -37 -127q25 -22 36.5 -47t11.5 -57q0 -75 -68.5 -115.5t-178.5 -40.5q-53 0 -106 11.5z" />
    <glyph glyph-name="uni0E0E" unicode="&#xe0e;" horiz-adv-x="659" 
d="M182 -141q25 25 70 40t91 15q91 0 149 -39v460q0 69 -37 101.5t-109 32.5q-55 0 -95.5 -15.5t-74.5 -50.5l60 -69v-229q0 -49 -26.5 -77t-76.5 -28h-88v85h42q27 0 37 10.5t10 39.5v198l-70 81q51 66 120 101t163 35q119 0 183 -54.5t64 -152.5v-564h-91
q-39 30 -76.5 42.5t-83.5 12.5q-45 0 -88 -16t-73 -45v86z" />
    <glyph glyph-name="uni0E0F" unicode="&#xe0f;" horiz-adv-x="659" 
d="M167 -216q-28 8 -47 21v79q44 -28 99 -28q87 0 103 77h60l110 -65v467q0 69 -37 101.5t-109 32.5q-55 0 -95.5 -15.5t-74.5 -50.5l60 -69v-229q0 -49 -26.5 -77t-76.5 -28h-88v85h42q27 0 37 10.5t10 39.5v198l-70 81q51 66 120 101t163 35q119 0 183 -54.5t64 -152.5
v-564h-97l-129 75q-38 -78 -143 -78q-30 0 -58 8z" />
    <glyph glyph-name="uni0E10" unicode="&#xe10;" horiz-adv-x="605" 
d="M72 294h101l52 -214q97 0 155.5 52.5t58.5 145.5q0 101 -48 146t-158 45q-50 0 -101.5 -9.5t-86.5 -25.5v80q37 17 90.5 26.5t109.5 9.5q96 0 162 -31l50 56h113l-93 -106q65 -68 65 -191q0 -79 -40 -142.5t-108.5 -99.5t-150.5 -36h-99zM100.5 -216q-29.5 8 -48.5 21v74
q42 -27 99 -27q44 0 68.5 18.5t34.5 59.5h54l116 -70v93h102v-174h-95l-130 78q-20 -44 -54 -62.5t-87 -18.5q-30 0 -59.5 8z" />
    <glyph glyph-name="uni0E11" unicode="&#xe11;" horiz-adv-x="626" 
d="M70 222q0 32 14.5 60t42.5 68q18 24 26.5 39.5t8.5 28.5v3q-18 -11 -47 -11q-70 0 -70 77v48h73v-35q0 -16 7.5 -23.5t24.5 -7.5q20 0 33 13v53h79v-41q24 27 63 41.5t80 14.5q156 0 156 -178v-372h-102v383q0 43 -18.5 64.5t-59.5 21.5q-82 0 -128 -64q-6 -22 -15 -39
t-27 -45q-20 -31 -29.5 -52t-9.5 -48v-221h-102v222z" />
    <glyph glyph-name="uni0E12" unicode="&#xe12;" horiz-adv-x="1038" 
d="M114.5 53.5q-69.5 68.5 -69.5 199.5q0 91 23.5 158t66.5 103t98 36q73 0 106 -61q17 31 49 46t74 15q69 0 102 -43.5t33 -118.5v-231q59 -92 152 -92q63 0 93 30t30 91v349h101v-353q0 -88 -51.5 -142.5t-145.5 -54.5q-51 0 -98 20.5t-84 64.5v-70h-98v381q0 46 -13 67
t-47 21q-28 0 -44 -15.5t-23 -46.5h-60q-11 62 -58 62q-53 0 -78 -62t-25 -154q0 -188 171 -188q37 0 70 10v-79q-35 -11 -87 -11q-118 0 -187.5 68.5z" />
    <glyph glyph-name="uni0E13" unicode="&#xe13;" horiz-adv-x="996" 
d="M505 39.5q-52 54.5 -52 142.5v153q0 69 -33.5 101.5t-102.5 32.5q-52 0 -90.5 -16t-72.5 -53l43 -67v-170q0 -46 9 -62t41 -16h56v-85h-106q-50 0 -76 28t-26 77v228l-50 81q53 67 118 101.5t154 34.5q116 0 176.5 -54.5t60.5 -152.5v-157q0 -121 123 -121q48 0 87 23
t65 69v378h102v-535h-98v70q-67 -85 -183 -85q-93 0 -145 54.5z" />
    <glyph glyph-name="uni0E14" unicode="&#xe14;" horiz-adv-x="675" 
d="M113.5 53q-68.5 68 -68.5 200q0 92 35.5 159t101.5 102.5t157 35.5q141 0 206 -66.5t65 -169.5v-314h-102v315q0 154 -169 154q-89 0 -140 -56t-51 -160q0 -96 43 -142t128 -46q38 0 70 10v-79q-35 -11 -87 -11q-120 0 -188.5 68z" />
    <glyph glyph-name="uni0E15" unicode="&#xe15;" horiz-adv-x="675" 
d="M113.5 53q-68.5 68 -68.5 200q0 91 25 158t68.5 103t99.5 36q76 0 107 -61q17 31 51 46t76 15q69 0 103.5 -44t34.5 -118v-388h-102v381q0 45 -14 66.5t-48 21.5q-57 0 -71 -62h-60q-5 31 -19.5 46.5t-41.5 15.5q-47 0 -76.5 -56t-29.5 -160q0 -96 42 -142t129 -46
q38 0 70 10v-79q-35 -11 -87 -11q-120 0 -188.5 68z" />
    <glyph glyph-name="uni0E16" unicode="&#xe16;" horiz-adv-x="640" 
d="M121 28q-26 28 -26 77v228l-50 81q53 67 121 101.5t161 34.5q120 0 184 -54.5t64 -152.5v-343h-102v335q0 69 -36.5 101.5t-109.5 32.5q-56 0 -97 -16t-76 -53l43 -67v-198q0 -28 11.5 -39t38.5 -11h56v-85h-106q-50 0 -76 28z" />
    <glyph glyph-name="uni0E17" unicode="&#xe17;" horiz-adv-x="628" 
d="M65 535h98v-72q39 44 91.5 65.5t106.5 21.5q98 0 150 -54t52 -139v-357h-102v352q0 56 -31 86.5t-96 30.5q-109 0 -167 -91v-378h-102v535z" />
    <glyph glyph-name="uni0E18" unicode="&#xe18;" horiz-adv-x="558" 
d="M112 27.5q-65 42.5 -65 117.5v67h101v-61q0 -45 36.5 -66.5t98.5 -21.5t95.5 20t33.5 61q0 33 -15 51t-46.5 29.5t-102.5 28.5q-68 16 -110.5 33.5t-67.5 46.5t-25 75q0 73 63.5 107.5t164.5 34.5q58 0 116 -12.5t92 -31.5v-84q-37 22 -90 34.5t-107 12.5
q-68 0 -102.5 -12t-34.5 -49q0 -22 16 -36t43 -23.5t81 -23.5l36 -10q70 -19 110 -38.5t60 -51t20 -81.5q0 -72 -60 -115.5t-170 -43.5q-106 0 -171 42.5z" />
    <glyph glyph-name="uni0E19" unicode="&#xe19;" horiz-adv-x="628" 
d="M119.5 40q-54.5 55 -54.5 142v353h102v-349q0 -60 33.5 -90.5t98.5 -30.5q103 0 162 92v378h102v-535h-99v72q-75 -87 -192 -87q-98 0 -152.5 55z" />
    <glyph glyph-name="uni0E1A" unicode="&#xe1a;" horiz-adv-x="643" 
d="M186 13q-58 28 -89.5 78.5t-31.5 115.5v328h102v-326q0 -67 39.5 -105.5t115.5 -38.5q75 0 114.5 38.5t39.5 105.5v326h102v-328q0 -65 -31.5 -115.5t-89.5 -78.5t-135 -28q-78 0 -136 28z" />
    <glyph glyph-name="uni0E1B" unicode="&#xe1b;" horiz-adv-x="643" 
d="M186 13q-58 28 -89.5 78.5t-31.5 115.5v328h102v-326q0 -67 39.5 -105.5t115.5 -38.5q75 0 114.5 38.5t39.5 105.5v505h102v-507q0 -65 -31.5 -115.5t-89.5 -78.5t-135 -28q-78 0 -136 28z" />
    <glyph glyph-name="uni0E1C" unicode="&#xe1c;" horiz-adv-x="644" 
d="M65 426q0 53 28 81t80 28h79v-86h-36q-27 0 -38.5 -11.5t-11.5 -39.5v-249l134 218h44l134 -218v386h101v-535h-92l-165 269l-165 -269h-92v426z" />
    <glyph glyph-name="uni0E1D" unicode="&#xe1d;" horiz-adv-x="644" 
d="M65 426q0 53 28 81t80 28h79v-86h-36q-27 0 -38.5 -11.5t-11.5 -39.5v-249l134 218h44l134 -218v565h101v-714h-92l-165 269l-165 -269h-92v426z" />
    <glyph glyph-name="uni0E1E" unicode="&#xe1e;" horiz-adv-x="778" 
d="M35 535h102l97 -392l116 392h78l115 -392l98 392h102l-149 -535h-86l-119 402l-120 -402h-86z" />
    <glyph glyph-name="uni0E1F" unicode="&#xe1f;" horiz-adv-x="757" 
d="M35 535h102l97 -392l116 392h78l115 -392l129 571h100l-178 -714h-86l-119 402l-120 -402h-86z" />
    <glyph glyph-name="uni0E20" unicode="&#xe20;" horiz-adv-x="659" 
d="M45 85h42q27 0 37 10.5t10 39.5v198l-70 81q51 66 120 101t163 35q119 0 183 -54.5t64 -152.5v-343h-102v335q0 69 -37 101.5t-109 32.5q-55 0 -95.5 -15.5t-74.5 -50.5l60 -69v-229q0 -49 -26.5 -77t-76.5 -28h-88v85z" />
    <glyph glyph-name="uni0E21" unicode="&#xe21;" horiz-adv-x="628" 
d="M251.5 7q-49.5 22 -88.5 65v-72h-98v535h102v-378q59 -92 162 -92q65 0 98.5 30.5t33.5 90.5v349h102v-353q0 -87 -55 -142t-152 -55q-55 0 -104.5 22z" />
    <glyph glyph-name="uni0E22" unicode="&#xe22;" horiz-adv-x="631" 
d="M114 29q-69 44 -69 128q0 44 24.5 77.5t65.5 46.5q-39 17 -62.5 49t-23.5 74q0 66 44 106t129 40q24 0 49 -3.5t40 -7.5v-80q-13 5 -33.5 7.5t-37.5 2.5q-43 0 -65.5 -18.5t-22.5 -52.5q0 -36 24 -55t71 -19h64v-84h-63q-48 0 -74 -20.5t-26 -62.5q0 -44 40.5 -68
t110.5 -24q165 0 165 140v330h102v-328q0 -56 -26 -106.5t-85.5 -83t-155.5 -32.5q-116 0 -185 44z" />
    <glyph glyph-name="uni0E23" unicode="&#xe23;" horiz-adv-x="511" 
d="M137 -2.5q-57 12.5 -89 36.5v82q43 -26 94.5 -39.5t98.5 -13.5q66 0 95 15.5t29 53.5q0 26 -14 42t-42.5 28t-89.5 30q-88 27 -131 63.5t-43 101.5q0 74 57 113.5t156 39.5q51 0 98.5 -11.5t78.5 -30.5v-84q-34 21 -78 33t-90 12q-120 0 -120 -72q0 -27 16.5 -43
t44 -26.5t92.5 -29.5q64 -19 100 -41t51 -52t15 -74q0 -66 -54 -106t-163 -40q-55 0 -112 12.5z" />
    <glyph glyph-name="uni0E24" unicode="&#xe24;" horiz-adv-x="640" 
d="M473 335q0 69 -36.5 101.5t-109.5 32.5q-56 0 -97 -16t-76 -53l43 -67v-198q0 -28 11.5 -39t38.5 -11h56v-85h-106q-50 0 -76 28t-26 77v228l-50 81q53 67 121 101.5t161 34.5q120 0 184 -54.5t64 -152.5v-539h-102v531z" />
    <glyph glyph-name="uni0E25" unicode="&#xe25;" horiz-adv-x="607" 
d="M97.5 29.5q-52.5 44.5 -52.5 126.5q0 81 58.5 129t158.5 48q99 0 178 -37v41q0 69 -37.5 100.5t-124.5 31.5q-48 0 -94 -9t-80 -25v80q31 15 84.5 25t104.5 10q125 0 187 -57t62 -154v-339h-102v215q-73 37 -167 37q-65 0 -95.5 -24t-30.5 -72q0 -91 117 -91q36 0 63 10
v-79q-36 -11 -88 -11q-89 0 -141.5 44.5z" />
    <glyph glyph-name="uni0E26" unicode="&#xe26;" horiz-adv-x="659" 
d="M492 335q0 69 -37 101.5t-109 32.5q-55 0 -95.5 -15.5t-74.5 -50.5l60 -69v-229q0 -49 -26.5 -77t-76.5 -28h-88v85h42q27 0 37 10.5t10 39.5v198l-70 81q51 66 120 101t163 35q119 0 183 -54.5t64 -152.5v-539h-102v531z" />
    <glyph glyph-name="uni0E27" unicode="&#xe27;" horiz-adv-x="576" 
d="M45 30v82q67 -47 175 -47q98 0 152.5 51t54.5 151t-54.5 151t-152.5 51q-105 0 -173 -47v83q70 45 193 45q135 0 213 -74.5t78 -208.5t-78 -208t-213 -74q-126 0 -195 45z" />
    <glyph glyph-name="uni0E28" unicode="&#xe28;" horiz-adv-x="643" 
d="M65 331q0 104 68 161.5t187 57.5q77 0 132 -24l43 49h113l-86 -98q52 -57 52 -146v-331h-102v334q0 68 -40 101.5t-112 33.5q-73 0 -113 -33.5t-40 -101.5v-102q13 24 41 38.5t66 14.5h80v-84h-88q-42 0 -70.5 -29.5t-28.5 -67.5v-104h-102v331z" />
    <glyph glyph-name="uni0E29" unicode="&#xe29;" horiz-adv-x="656" 
d="M186 13q-58 28 -89.5 78.5t-31.5 115.5v328h102v-326q0 -67 39.5 -105.5t115.5 -38.5q75 0 114.5 38.5t39.5 105.5v61h-127v84h127v181h102v-181h58v-84h-58v-63q0 -65 -31.5 -115.5t-89.5 -78.5t-135 -28q-78 0 -136 28z" />
    <glyph glyph-name="uni0E2A" unicode="&#xe2a;" horiz-adv-x="622" 
d="M97.5 29.5q-52.5 44.5 -52.5 126.5q0 81 58.5 129t158.5 48q99 0 178 -37v41q0 69 -37.5 100.5t-124.5 31.5q-48 0 -94 -9t-80 -25v80q31 15 84.5 25t104.5 10q90 0 150 -33l51 58h113l-101 -113q36 -51 36 -123v-339h-102v215q-73 37 -167 37q-65 0 -95.5 -24t-30.5 -72
q0 -91 117 -91q36 0 63 10v-79q-36 -11 -88 -11q-89 0 -141.5 44.5z" />
    <glyph glyph-name="uni0E2B" unicode="&#xe2b;" horiz-adv-x="611" 
d="M65 535h102v-236l259 236h119l-146 -133q82 -21 114.5 -67t32.5 -123v-212h-102v206q0 60 -24.5 91t-84.5 44l-168 -153v-188h-102v535z" />
    <glyph glyph-name="uni0E2C" unicode="&#xe2c;" horiz-adv-x="655" 
d="M65 535h101v-381l138 236h43l138 -236v247q0 57 -23.5 81.5t-86.5 24.5v57l112 150h113l-116 -156q58 -16 80.5 -54.5t22.5 -101.5v-402h-93l-168 288l-169 -288h-92v535z" />
    <glyph glyph-name="uni0E2D" unicode="&#xe2d;" horiz-adv-x="609" 
d="M143 -0.5q-58 14.5 -98 40.5v266h222v-82h-120v-133q43 -26 116 -26q96 0 146.5 53t50.5 154t-51.5 149t-168.5 48q-53 0 -104 -10.5t-86 -33.5v81q39 22 92 33t114 11q150 0 229 -73t79 -205q0 -133 -78.5 -210t-222.5 -77q-62 0 -120 14.5z" />
    <glyph glyph-name="uni0E2E" unicode="&#xe2e;" horiz-adv-x="618" 
d="M143 -0.5q-58 14.5 -98 40.5v266h222v-82h-120v-133q43 -26 116 -26q96 0 146.5 53t50.5 154q0 102 -52.5 149.5t-167.5 47.5q-53 0 -104 -10.5t-86 -33.5v81q39 22 92 33t114 11q102 0 172 -39l57 64h113l-102 -116q68 -76 68 -187q0 -133 -78.5 -210t-222.5 -77
q-62 0 -120 14.5z" />
    <glyph glyph-name="uni0E2F" unicode="&#xe2f;" horiz-adv-x="528" 
d="M361 258q-58 -36 -152 -36q-81 0 -132.5 42.5t-51.5 120.5t47 121.5t122 43.5q56 0 89 -13v-77q-29 9 -62 9q-43 0 -68 -20.5t-25 -63.5q0 -83 104 -83q75 0 129 39v194h102v-535h-102v258z" />
    <glyph glyph-name="uni0E30" unicode="&#xe30;" horiz-adv-x="331" 
d="M63 345q-18 20 -18 61v57h92v-38q0 -16 7 -22.5t25 -6.5h117v-71h-161q-44 0 -62 20zM63 72q-18 20 -18 61v57h92v-38q0 -16 7 -22.5t25 -6.5h117v-71h-161q-44 0 -62 20z" />
    <glyph glyph-name="uni0E31" unicode="&#xe31;" 
d="M-315.5 635.5q-19.5 21.5 -19.5 64.5v52h92v-40q0 -17 6.5 -23t24.5 -6h236v-69h-277q-43 0 -62.5 21.5z" />
    <glyph glyph-name="uni0E32" unicode="&#xe32;" horiz-adv-x="420" 
d="M253 346q0 64 -26 93.5t-92 29.5q-64 0 -120 -28v80q24 12 62.5 20.5t76.5 8.5q101 0 151 -54.5t50 -156.5v-339h-102v346z" />
    <glyph glyph-name="uni0E33" unicode="&#xe33;" horiz-adv-x="424" 
d="M-206.5 617q-32.5 32 -32.5 77q0 46 32.5 78.5t77.5 32.5t77.5 -32.5t32.5 -78.5q0 -45 -32.5 -77t-77.5 -32t-77.5 32zM-97.5 661.5q13.5 14.5 13.5 32.5t-13.5 32t-31.5 14t-31.5 -14t-13.5 -32t13.5 -32.5t31.5 -14.5t31.5 14.5zM257 346q0 64 -26 93.5t-92 29.5
q-65 0 -121 -28v80q24 12 62.5 20.5t76.5 8.5q101 0 151.5 -54.5t50.5 -156.5v-339h-102v346z" />
    <glyph glyph-name="uni0E34" unicode="&#xe34;" 
d="M-498 683h432v-69h-432v69z" />
    <glyph glyph-name="uni0E35" unicode="&#xe35;" 
d="M-498 683h339v107h93v-176h-432v69z" />
    <glyph glyph-name="uni0E36" unicode="&#xe36;" 
d="M-497 681h262q-8 18 -6 43q4 36 31 58t66 22q47 0 72.5 -27t25.5 -66q0 -42 -29.5 -69.5t-77.5 -27.5h-344v67zM-111.5 678.5q13.5 13.5 13.5 32.5t-13.5 32.5t-32.5 13.5t-32 -13.5t-13 -32.5q0 -20 13 -33t32 -13t32.5 13.5z" />
    <glyph glyph-name="uni0E37" unicode="&#xe37;" 
d="M-497 681h201v109h75v-109h81v109h74v-176h-431v67z" />
    <glyph glyph-name="uni0E38" unicode="&#xe38;" 
d="M-158 -161q0 18 -6.5 24.5t-25.5 6.5h-33v73h82q45 0 60.5 -18t15.5 -64v-124h-93v102z" />
    <glyph glyph-name="uni0E39" unicode="&#xe39;" 
d="M-285.5 -245q-34.5 26 -34.5 70v27q0 14 -4 18.5t-17 4.5h-34v68h88q27 0 37 -12t10 -39v-57q0 -44 48 -44q47 0 47 44v108h80v-115q0 -44 -32.5 -71.5t-91.5 -27.5q-62 0 -96.5 26z" />
    <glyph glyph-name="uni0E3A" unicode="&#xe3a;" 
d="M-155 -148.5q-17 16.5 -17 39.5t17 40t40 17t40 -17t17 -40t-17 -39.5t-40 -16.5t-40 16.5z" />
    <glyph glyph-name="uni0E3F" unicode="&#xe3f;" horiz-adv-x="649" 
d="M261 0h-196v699h196v103h89v-103h36q93 0 144 -48t51 -140q0 -52 -24.5 -91.5t-64.5 -58.5q112 -33 112 -163q0 -61 -26.5 -105.5t-72.5 -68.5t-102 -24h-53v-103h-89v103zM261 399v217h-94v-217h94zM373 399q49 0 77 27t28 80q0 61 -27.5 85.5t-84.5 24.5h-16v-217h23z
M261 83v232h-94v-232h94zM380 83q59 0 90 26t31 89t-32.5 90t-97.5 27h-21v-232h30z" />
    <glyph glyph-name="uni0E40" unicode="&#xe40;" horiz-adv-x="297" 
d="M90.5 27.5q-25.5 27.5 -25.5 77.5v430h102v-402q0 -27 11 -37.5t38 -10.5h36v-85h-87q-49 0 -74.5 27.5z" />
    <glyph glyph-name="uni0E41" unicode="&#xe41;" horiz-adv-x="555" 
d="M90.5 27.5q-25.5 27.5 -25.5 77.5v430h102v-402q0 -27 11 -37.5t38 -10.5h36v-85h-87q-49 0 -74.5 27.5zM348 28q-26 28 -26 77v430h102v-402q0 -27 11.5 -37.5t38.5 -10.5h36v-85h-88q-48 0 -74 28z" />
    <glyph glyph-name="uni0E42" unicode="&#xe42;" horiz-adv-x="330" 
d="M139.5 27.5q-25.5 27.5 -25.5 77.5v384q0 73 -27 114t-87 66v83h315v-86h-179q41 -27 60.5 -72t19.5 -108v-353q0 -27 11 -37.5t38 -10.5h36v-85h-87q-49 0 -74.5 27.5z" />
    <glyph glyph-name="uni0E43" unicode="&#xe43;" horiz-adv-x="302" 
d="M94.5 27.5q-25.5 27.5 -25.5 77.5v271q0 51 18 85.5t52 74.5q23 26 33.5 44t10.5 38q0 33 -17.5 48t-60.5 15q-61 0 -110 -34v80q29 17 65.5 26t75.5 9q76 0 113.5 -37t37.5 -96q0 -32 -13.5 -56.5t-40.5 -56.5q-31 -37 -46.5 -66t-15.5 -71v-246q0 -27 11 -37.5
t38 -10.5h36v-85h-87q-49 0 -74.5 27.5z" />
    <glyph glyph-name="uni0E44" unicode="&#xe44;" horiz-adv-x="330" 
d="M124.5 28.5q-25.5 27.5 -25.5 77.5v379q0 67 19 110t64 71h-182v86h315v-82q-60 -26 -87 -67t-27 -114v-354q0 -27 11 -37.5t38 -10.5h36v-86h-87q-49 0 -74.5 27.5z" />
    <glyph glyph-name="uni0E45" unicode="&#xe45;" horiz-adv-x="420" 
d="M253 346q0 64 -26 93.5t-92 29.5q-64 0 -120 -28v80q24 12 62.5 20.5t76.5 8.5q101 0 151 -54.5t50 -156.5v-535h-102v542z" />
    <glyph glyph-name="uni0E46" unicode="&#xe46;" horiz-adv-x="598" 
d="M431 388q0 43 -13 62t-46 19q-29 0 -44 -15.5t-20 -46.5h-61q-5 33 -15.5 47.5t-37.5 14.5q-31 0 -48.5 -26.5t-17.5 -79.5q0 -92 95 -92q40 0 70 10v-79q-40 -11 -87 -11q-79 0 -130 42t-51 130q0 84 38 135.5t113 51.5q73 0 103 -61q30 61 109 61t112 -45t33 -126v-379
h-102v388z" />
    <glyph glyph-name="uni0E47" unicode="&#xe47;" 
d="M-436 640q-31 30 -31 78q0 61 35 92t96 31h237v-58h-230q-34 0 -50.5 -14t-16.5 -44q0 -27 14 -41t39 -14q28 0 42.5 15t14.5 40h58q0 -51 56 -51h56v-60h-55q-33 0 -57 13.5t-30 33.5q-8 -20 -34 -35.5t-60 -15.5q-53 0 -84 30z" />
    <glyph glyph-name="uni0E48" unicode="&#xe48;" 
d="M-164 781h101v-167h-101v167z" />
    <glyph glyph-name="uni0E49" unicode="&#xe49;" 
d="M-280 677q0 12 -4.5 17t-16.5 5h-45v72h75q32 0 46.5 -15.5t14.5 -38.5v-35h205v-68h-275v63z" />
    <glyph glyph-name="uni0E4A" unicode="&#xe4a;" 
d="M-481 702q0 53 26 83t68 30q29 0 46 -10.5t26 -30.5q19 40 71 40q79 0 79 -87v-55h15q16 0 22.5 7t6.5 25v107h59v-105q0 -92 -94 -92h-64v85q0 25 -7 37t-26 12q-22 0 -29.5 -11.5t-7.5 -34.5v-17h-49v16q0 47 -35 47q-21 0 -30.5 -13t-9.5 -42q0 -42 26 -79h-68
q-25 38 -25 88z" />
    <glyph glyph-name="uni0E4B" unicode="&#xe4b;" 
d="M-206 664h-64v78h64v51h99v-51h65v-78h-65v-50h-99v50z" />
    <glyph glyph-name="uni0E4C" unicode="&#xe4c;" 
d="M-304 671q0 78 85 78h221v-67h-181q-18 0 -25 -7t-7 -25v-36h-93v57z" />
    <glyph glyph-name="uni0E4D" unicode="&#xe4d;" 
d="M-206.5 637q-32.5 32 -32.5 77q0 46 32.5 78.5t77.5 32.5t77.5 -32.5t32.5 -78.5q0 -45 -32.5 -77t-77.5 -32t-77.5 32zM-97.5 681.5q13.5 14.5 13.5 32.5t-13.5 32t-31.5 14t-31.5 -14t-13.5 -32t13.5 -32.5t31.5 -14.5t31.5 14.5z" />
    <glyph glyph-name="uni0E4E" unicode="&#xe4e;" 
d="M-271 636q-27 22 -27 60t22.5 60t60.5 25q-16 16 -16 41q0 30 23.5 48t59.5 18t59 -13v-46q-20 14 -48 14q-35 0 -35 -26t39 -35v-44q-23 6 -42 6q-30 0 -44 -10.5t-14 -34.5q0 -19 14 -29t39 -10q35 0 58 17v-47q-27 -16 -74 -16q-48 0 -75 22z" />
    <glyph glyph-name="uni0E4F" unicode="&#xe4f;" horiz-adv-x="597" 
d="M170 18q-58 33 -91.5 91t-33.5 131t33.5 131t91.5 91t128 33q71 0 129 -33t91.5 -91t33.5 -131t-33.5 -131.5t-91.5 -91t-129 -32.5q-70 0 -128 33zM390 80q41 23 64.5 64.5t23.5 95.5q0 53 -23.5 94t-64.5 64t-92 23t-91.5 -23t-64 -64t-23.5 -94q0 -54 23.5 -95.5
t64 -64.5t91.5 -23t92 23zM195 134q-42 41 -42 106q0 64 42 105t104 41t104 -41t42 -105q0 -65 -42 -106t-104 -41t-104 41zM356 180.5q22 22.5 22 59.5q0 36 -22 58.5t-57 22.5t-57.5 -22.5t-22.5 -58.5q0 -37 22.5 -59.5t57.5 -22.5t57 22.5z" />
    <glyph glyph-name="uni0E50" unicode="&#xe50;" horiz-adv-x="641" 
d="M176.5 17q-62.5 32 -97 89.5t-34.5 133.5t34.5 133.5t97 89.5t143.5 32t143.5 -32t97.5 -89.5t35 -133.5t-35 -133.5t-97.5 -89.5t-143.5 -32t-143.5 32zM444.5 112.5q48.5 47.5 48.5 127.5q0 79 -48.5 126.5t-124.5 47.5q-49 0 -88.5 -21.5t-62 -61t-22.5 -91.5
q0 -80 49 -127.5t124 -47.5q76 0 124.5 47.5z" />
    <glyph glyph-name="uni0E51" unicode="&#xe51;" horiz-adv-x="630" 
d="M269 0q113 26 163 80.5t50 152.5q0 89 -42 135t-134 46q-75 0 -117 -39t-42 -106q0 -59 33 -90t94 -31q51 0 85 20v-76q-19 -11 -46.5 -17.5t-59.5 -6.5q-94 0 -151 54.5t-57 146.5q0 105 70 165.5t191 60.5q136 0 207.5 -70.5t71.5 -189.5q0 -122 -79 -204t-237 -118v87
z" />
    <glyph glyph-name="uni0E52" unicode="&#xe52;" horiz-adv-x="721" 
d="M144.5 48q-79.5 63 -79.5 196v306h91v-310q0 -176 207 -176q90 0 146 39t56 120v133q0 29 -11 42.5t-36 13.5q-45 0 -62 -63h-63q-6 33 -17 49t-35 16q-26 0 -41 -23.5t-15 -73.5q0 -49 24.5 -74t66.5 -25q43 0 67 9v-78q-17 -5 -33 -7t-42 -2q-78 0 -124 45.5t-46 131.5
q0 75 34.5 126.5t97.5 51.5q71 0 95 -64q13 29 40 46.5t64 17.5q63 0 95 -34t32 -95v-145q0 -74 -38.5 -127t-105 -81t-149.5 -28q-139 0 -218.5 63z" />
    <glyph glyph-name="uni0E53" unicode="&#xe53;" horiz-adv-x="665" 
d="M141 13.5q-45 28.5 -70.5 84t-25.5 133.5q0 128 50.5 196t137.5 68q71 0 103 -53q18 25 49 39t66 14q66 0 107.5 -38t41.5 -100v-357h-95v348q0 35 -16.5 50.5t-49.5 15.5q-28 0 -45 -15.5t-17 -44.5v-178h-85v178q0 60 -55 60q-45 0 -67.5 -47t-22.5 -138
q0 -83 28.5 -123.5t77.5 -40.5q21 0 43 3t35 8v-81q-38 -10 -88 -10q-57 0 -102 28.5z" />
    <glyph glyph-name="uni0E54" unicode="&#xe54;" horiz-adv-x="629" 
d="M114 59.5q-69 59.5 -69 174.5q0 76 33 136.5t98.5 95.5t160.5 35q65 0 95 3t48 16.5t26 43.5h98q-20 -75 -72.5 -109t-155.5 -34q-118 0 -173.5 -44.5t-55.5 -143.5q0 -81 38 -116t112 -35h54q-21 15 -34 41.5t-13 56.5q0 61 43.5 98t114.5 37q68 0 105 -19v-80
q-14 8 -35.5 13t-43.5 5q-83 0 -83 -74q0 -78 98 -78h87v-82h-287q-120 0 -189 59.5z" />
    <glyph glyph-name="uni0E55" unicode="&#xe55;" horiz-adv-x="629" 
d="M114 59.5q-69 59.5 -69 174.5q0 108 60.5 175t164.5 81q-15 23 -15 46q0 44 27 69t71 25t70 -23.5t26 -64.5q0 -22 -11 -38q33 2 50.5 15.5t24.5 44.5h91q-20 -75 -73.5 -108.5t-154.5 -33.5q-118 0 -173.5 -44.5t-55.5 -144.5q0 -81 38 -116t112 -35h54q-21 15 -34 41.5
t-13 56.5q0 61 43.5 98t114.5 37q68 0 105 -19v-80q-14 8 -35.5 13t-43.5 5q-83 0 -83 -74q0 -78 98 -78h87v-82h-287q-120 0 -189 59.5zM383 505.5q12 12.5 12 30.5t-11.5 30t-30.5 12q-17 0 -29 -12t-12 -30t12 -30.5t29 -12.5q18 0 30 12.5z" />
    <glyph glyph-name="uni0E56" unicode="&#xe56;" horiz-adv-x="652" 
d="M209.5 0.5q-56.5 15.5 -90.5 45.5v86q43 -34 96 -50.5t109 -16.5q83 0 131.5 44.5t48.5 127.5q0 84 -39.5 130.5t-123.5 46.5q-63 0 -111 -32t-69 -96h-72l-64 265h85l38 -161q28 50 81.5 77.5t124.5 27.5q127 0 190 -71t63 -187q0 -73 -34 -130t-97.5 -89.5
t-148.5 -32.5q-61 0 -117.5 15.5z" />
    <glyph glyph-name="uni0E57" unicode="&#xe57;" horiz-adv-x="834" 
d="M141 13.5q-45 28.5 -70.5 84t-25.5 133.5q0 128 49.5 196t136.5 68q71 0 103 -53q18 25 48.5 39t66.5 14q65 0 105 -37.5t40 -100.5v-276q43 0 64.5 18t21.5 64v387h89v-370q0 -100 -53.5 -140t-146.5 -40h-68v348q0 35 -16 50.5t-49 15.5q-28 0 -45 -15t-17 -44v-179
h-83v179q0 59 -55 59q-89 0 -89 -185q0 -83 28.5 -123.5t77.5 -40.5q21 0 43 3t35 8v-81q-38 -10 -88 -10q-57 0 -102 28.5z" />
    <glyph glyph-name="uni0E58" unicode="&#xe58;" horiz-adv-x="660" 
d="M93 45q-48 60 -48 182q0 79 32.5 141t98 97.5t159.5 35.5q64 0 95 3.5t49.5 16.5t26.5 43h98q-20 -75 -73.5 -109t-156.5 -34q-115 0 -171.5 -47t-56.5 -147q0 -87 19.5 -125t62.5 -38q31 0 47 15.5t16 45.5v55h95v-55q0 -29 17.5 -45t46.5 -16q35 0 54 25.5t19 75.5
q0 40 -18.5 62.5t-50.5 22.5q-41 0 -63 -14v81q33 14 82 14q61 0 101.5 -43.5t40.5 -122.5q0 -86 -43 -133t-114 -47q-34 0 -68 13t-52 37q-16 -24 -46.5 -37t-68.5 -13q-82 0 -130 60z" />
    <glyph glyph-name="uni0E59" unicode="&#xe59;" horiz-adv-x="721" 
d="M141 13.5q-44 28.5 -70 83.5t-26 132q0 128 51.5 197t140.5 69q37 0 63.5 -14.5t41.5 -36.5q16 23 42.5 37t60.5 14q87 0 115 -69l50 124h86l-112 -281h-80l19 48q2 16 2 23q0 34 -17 54t-50 20q-32 0 -48.5 -14.5t-16.5 -39.5q0 -16 6 -34l98 -326h-86l-103 344
q-11 37 -25.5 53.5t-47.5 16.5q-45 0 -67 -47.5t-22 -137.5q0 -84 29 -124t82 -40q35 0 62 10v-81q-36 -9 -80 -9q-54 0 -98 28.5z" />
    <glyph glyph-name="uni0E5A" unicode="&#xe5a;" horiz-adv-x="839" 
d="M361 258q-58 -36 -152 -36q-81 0 -132.5 42.5t-51.5 120.5t47 121.5t122 43.5q56 0 89 -13v-77q-29 9 -62 9q-43 0 -68 -20.5t-25 -63.5q0 -83 104 -83q75 0 129 39v194h102v-208q31 -25 82 -25q73 0 127 39v194h102v-535h-102v258q-58 -36 -151 -36q-35 0 -58 13v-235
h-102v258z" />
    <glyph glyph-name="uni0E5B" unicode="&#xe5b;" horiz-adv-x="1135" 
d="M117 50q-72 65 -72 188q0 73 29.5 131.5t83 92t124.5 33.5q105 0 159.5 -52.5t54.5 -143.5q0 -92 -49 -136.5t-123 -44.5q-53 0 -91 22v83q16 -12 38 -19t46 -7q46 0 71 22.5t25 79.5q-2 117 -131 117q-72 0 -113 -47t-41 -131q0 -174 188 -174q119 0 173.5 58.5
t54.5 180.5v98h97l45 -160h2l25 146h81l39 -145h2l23 125h63l43 -121h2l19 52h105v-68h-74l-25 -74h-52l-39 104h-2l-34 -129h-58l-49 144h-2l-37 -165h-60l-44 165h-2q4 -86 -31.5 -152t-104 -102t-160.5 -36q-127 0 -199 65z" />
    <glyph glyph-name="uni1E0C" unicode="&#x1e0c;" horiz-adv-x="703" 
d="M65 699h225q113 0 196 -42t127.5 -120t44.5 -184q0 -174 -100.5 -263.5t-281.5 -89.5h-211v699zM275 85q140 0 210 69t70 199q0 120 -68.5 190t-195.5 70h-124v-528h108zM234.5 -149q-17.5 17 -17.5 41t17.5 41t41.5 17q23 0 40 -17t17 -41t-17 -41t-40 -17
q-24 0 -41.5 17z" />
    <glyph glyph-name="uni1E0D" unicode="&#x1e0d;" horiz-adv-x="660" 
d="M167.5 16.5q-57.5 31.5 -90 89t-32.5 133.5q0 75 32.5 133t90 90.5t129.5 32.5q130 0 197 -79v323h101v-739h-98v70q-40 -44 -87.5 -64.5t-112.5 -20.5q-72 0 -129.5 31.5zM428.5 97.5q46.5 32.5 65.5 87.5v108q-17 55 -64.5 88t-109.5 33q-49 0 -88.5 -22t-62 -62
t-22.5 -91t22.5 -91t62 -61.5t88.5 -21.5q62 0 108.5 32.5zM282.5 -149q-17.5 17 -17.5 41t17.5 41t41.5 17q23 0 40 -17t17 -41t-17 -41t-40 -17q-24 0 -41.5 17z" />
    <glyph glyph-name="uni1E0E" unicode="&#x1e0e;" horiz-adv-x="703" 
d="M65 699h225q113 0 196 -42t127.5 -120t44.5 -184q0 -174 -100.5 -263.5t-281.5 -89.5h-211v699zM275 85q140 0 210 69t70 199q0 120 -68.5 190t-195.5 70h-124v-528h108zM126 -71h314v-70h-314v70z" />
    <glyph glyph-name="uni1E0F" unicode="&#x1e0f;" horiz-adv-x="660" 
d="M167.5 16.5q-57.5 31.5 -90 89t-32.5 133.5q0 75 32.5 133t90 90.5t129.5 32.5q130 0 197 -79v323h101v-739h-98v70q-40 -44 -87.5 -64.5t-112.5 -20.5q-72 0 -129.5 31.5zM428.5 97.5q46.5 32.5 65.5 87.5v108q-17 55 -64.5 88t-109.5 33q-49 0 -88.5 -22t-62 -62
t-22.5 -91t22.5 -91t62 -61.5t88.5 -21.5q62 0 108.5 32.5zM182 -71h314v-70h-314v70z" />
    <glyph glyph-name="uni1E20" unicode="&#x1e20;" horiz-adv-x="716" 
d="M260 831h312v-69h-312v69zM223 30q-84 45 -131 127.5t-47 191.5t47 192t131 128t192 45q145 0 241 -72v-98q-87 76 -232 76q-79 0 -142 -33t-98.5 -94.5t-35.5 -143.5t35 -144t97 -95t140 -33q91 0 149 37v183h-133v83h235v-320q-47 -39 -110.5 -57t-145.5 -18
q-108 0 -192 45z" />
    <glyph glyph-name="uni1E21" unicode="&#x1e21;" horiz-adv-x="660" 
d="M168 624h312v-69h-312v69zM220.5 -222q-46.5 8 -78.5 23v83q75 -34 174 -34q93 0 135.5 40.5t42.5 122.5v51q-66 -79 -194 -79q-73 0 -131 32t-91 90t-33 133q0 76 32.5 133.5t90 89.5t129.5 32q67 0 113.5 -19.5t86.5 -64.5v69h98v-456q0 -123 -68.5 -188.5
t-210.5 -65.5q-49 0 -95.5 8zM429.5 98q47.5 33 64.5 88v108q-19 56 -65.5 88t-108.5 32q-49 0 -88.5 -21.5t-62 -61.5t-22.5 -91q0 -52 22.5 -91.5t62 -61.5t88.5 -22q62 0 109.5 33z" />
    <glyph glyph-name="uni1E24" unicode="&#x1e24;" horiz-adv-x="699" 
d="M65 699h102v-300h365v300h102v-699h-102v313h-365v-313h-102v699zM308.5 -149q-17.5 17 -17.5 41t17.5 41t41.5 17q23 0 40 -17t17 -41t-17 -41t-40 -17q-24 0 -41.5 17z" />
    <glyph glyph-name="uni1E25" unicode="&#x1e25;" horiz-adv-x="600" 
d="M65 739h101v-325q69 81 184 81q96 0 143 -51t47 -137v-307h-101v297q0 117 -112 117q-48 0 -89.5 -22.5t-71.5 -68.5v-323h-101v739zM263.5 -149q-17.5 17 -17.5 41t17.5 41t41.5 17q23 0 40 -17t17 -41t-17 -41t-40 -17q-24 0 -41.5 17z" />
    <glyph glyph-name="uni1E2A" unicode="&#x1e2a;" horiz-adv-x="699" 
d="M65 699h102v-300h365v300h102v-699h-102v313h-365v-313h-102v699zM239.5 -163q-40.5 39 -40.5 102h78q0 -34 19.5 -53t53.5 -19t53.5 19t19.5 53h77q0 -63 -40.5 -102t-109.5 -39q-70 0 -110.5 39z" />
    <glyph glyph-name="uni1E2B" unicode="&#x1e2b;" horiz-adv-x="600" 
d="M65 739h101v-325q69 81 184 81q96 0 143 -51t47 -137v-307h-101v297q0 117 -112 117q-48 0 -89.5 -22.5t-71.5 -68.5v-323h-101v739zM196.5 -163q-40.5 39 -40.5 102h78q0 -34 19.5 -53t53.5 -19t53.5 19t19.5 53h77q0 -63 -40.5 -102t-109.5 -39q-70 0 -110.5 39z" />
    <glyph glyph-name="uni1E36" unicode="&#x1e36;" horiz-adv-x="546" 
d="M65 699h102v-614h354v-85h-456v699zM231.5 -149q-17.5 17 -17.5 41t17.5 41t41.5 17q23 0 40 -17t17 -41t-17 -41t-40 -17q-24 0 -41.5 17z" />
    <glyph glyph-name="uni1E37" unicode="&#x1e37;" horiz-adv-x="236" 
d="M68 739h101v-739h-101v739zM77.5 -149q-17.5 17 -17.5 41t17.5 41t41.5 17q23 0 40 -17t17 -41t-17 -41t-40 -17q-24 0 -41.5 17z" />
    <glyph glyph-name="uni1E38" unicode="&#x1e38;" horiz-adv-x="554" 
d="M70 842h312v-69h-312v69zM73 699h102v-614h354v-85h-456v699zM254.5 -149q-17.5 17 -17.5 41t17.5 41t41.5 17q23 0 40 -17t17 -41t-17 -41t-40 -17q-24 0 -41.5 17z" />
    <glyph glyph-name="uni1E39" unicode="&#x1e39;" horiz-adv-x="232" 
d="M-40 854h312v-69h-312v69zM66 739h101v-739h-101v739zM75.5 -149q-17.5 17 -17.5 41t17.5 41t41.5 17q23 0 40 -17t17 -41t-17 -41t-40 -17q-24 0 -41.5 17z" />
    <glyph glyph-name="uni1E3A" unicode="&#x1e3a;" horiz-adv-x="546" 
d="M65 699h102v-614h354v-85h-456v699zM132 -71h314v-70h-314v70z" />
    <glyph glyph-name="uni1E3B" unicode="&#x1e3b;" horiz-adv-x="234" 
d="M67 739h101v-739h-101v739zM-40 -71h314v-70h-314v70z" />
    <glyph glyph-name="uni1E42" unicode="&#x1e42;" horiz-adv-x="832" 
d="M65 699h102l249 -545l249 545h102v-699h-99v497l-227 -497h-50l-228 497v-497h-98v699zM375.5 -149q-17.5 17 -17.5 41t17.5 41t41.5 17q23 0 40 -17t17 -41t-17 -41t-40 -17q-24 0 -41.5 17z" />
    <glyph glyph-name="uni1E43" unicode="&#x1e43;" horiz-adv-x="867" 
d="M65 480h96v-69q34 42 77 63t89 21q58 0 92 -19.5t50 -59.5q32 39 78.5 59t93.5 20q88 0 127 -44.5t39 -131.5v-319h-98v306q0 59 -22 83.5t-75 24.5q-76 0 -124 -66q2 -15 2 -49v-299h-98v306q0 59 -20 83.5t-72 24.5q-76 0 -136 -86v-328h-99v480zM402.5 -149
q-17.5 17 -17.5 41t17.5 41t41.5 17q23 0 40 -17t17 -41t-17 -41t-40 -17q-24 0 -41.5 17z" />
    <glyph glyph-name="uni1E44" unicode="&#x1e44;" horiz-adv-x="686" 
d="M308.5 758q-17.5 17 -17.5 41t17.5 41t41.5 17q23 0 40 -17t17 -41t-17 -41t-40 -17q-24 0 -41.5 17zM65 699h97l356 -527v527h103v-699h-98l-356 527v-527h-102v699z" />
    <glyph glyph-name="uni1E45" unicode="&#x1e45;" horiz-adv-x="600" 
d="M260.5 551q-17.5 17 -17.5 41t17.5 41t41.5 17q23 0 40 -17t17 -41t-17 -41t-40 -17q-24 0 -41.5 17zM65 480h98v-69q34 43 83.5 63.5t103.5 20.5q96 0 143 -51t47 -137v-307h-101v297q0 117 -112 117q-48 0 -89.5 -22.5t-71.5 -68.5v-323h-101v480z" />
    <glyph glyph-name="uni1E46" unicode="&#x1e46;" horiz-adv-x="686" 
d="M65 699h97l356 -527v527h103v-699h-98l-356 527v-527h-102v699zM305.5 -149q-17.5 17 -17.5 41t17.5 41t41.5 17q23 0 40 -17t17 -41t-17 -41t-40 -17q-24 0 -41.5 17z" />
    <glyph glyph-name="uni1E47" unicode="&#x1e47;" horiz-adv-x="600" 
d="M65 480h98v-69q34 43 83.5 63.5t103.5 20.5q96 0 143 -51t47 -137v-307h-101v297q0 117 -112 117q-48 0 -89.5 -22.5t-71.5 -68.5v-323h-101v480zM261.5 -149q-17.5 17 -17.5 41t17.5 41t41.5 17q23 0 40 -17t17 -41t-17 -41t-40 -17q-24 0 -41.5 17z" />
    <glyph glyph-name="uni1E48" unicode="&#x1e48;" horiz-adv-x="686" 
d="M65 699h97l356 -527v527h103v-699h-98l-356 527v-527h-102v699zM195 -71h314v-70h-314v70z" />
    <glyph glyph-name="uni1E49" unicode="&#x1e49;" horiz-adv-x="600" 
d="M65 480h98v-69q34 43 83.5 63.5t103.5 20.5q96 0 143 -51t47 -137v-307h-101v297q0 117 -112 117q-48 0 -89.5 -22.5t-71.5 -68.5v-323h-101v480zM152 -71h314v-70h-314v70z" />
    <glyph glyph-name="uni1E5A" unicode="&#x1e5a;" horiz-adv-x="623" 
d="M65 699h281q112 0 172 -54t60 -158q0 -77 -41 -130.5t-116 -72.5l154 -284h-106l-149 276h-153v-276h-102v699zM329 362q67 0 106.5 31.5t39.5 93.5q0 68 -38.5 97t-107.5 29h-162v-251h162zM259.5 -149q-17.5 17 -17.5 41t17.5 41t41.5 17q23 0 40 -17t17 -41t-17 -41
t-40 -17q-24 0 -41.5 17z" />
    <glyph glyph-name="uni1E5B" unicode="&#x1e5b;" horiz-adv-x="412" 
d="M78 480h98v-86q30 44 84.5 65t126.5 21v-79q-77 0 -132 -25t-76 -79v-297h-101v480zM82.5 -149q-17.5 17 -17.5 41t17.5 41t41.5 17q23 0 40 -17t17 -41t-17 -41t-40 -17q-24 0 -41.5 17z" />
    <glyph glyph-name="uni1E5C" unicode="&#x1e5c;" horiz-adv-x="623" 
d="M123 843h312v-69h-312v69zM65 699h281q112 0 172 -54t60 -158q0 -77 -41 -130.5t-116 -72.5l154 -284h-106l-149 276h-153v-276h-102v699zM329 362q67 0 106.5 31.5t39.5 93.5q0 68 -38.5 97t-107.5 29h-162v-251h162zM238.5 -149q-17.5 17 -17.5 41t17.5 41t41.5 17
q23 0 40 -17t17 -41t-17 -41t-40 -17q-24 0 -41.5 17z" />
    <glyph glyph-name="uni1E5D" unicode="&#x1e5d;" horiz-adv-x="411" 
d="M65 643h312v-69h-312v69zM77 480h98v-86q30 44 84.5 65t126.5 21v-79q-77 0 -132 -25t-76 -79v-297h-101v480zM83.5 -149q-17.5 17 -17.5 41t17.5 41t41.5 17q23 0 40 -17t17 -41t-17 -41t-40 -17q-24 0 -41.5 17z" />
    <glyph glyph-name="uni1E5E" unicode="&#x1e5e;" horiz-adv-x="623" 
d="M65 699h281q112 0 172 -54t60 -158q0 -77 -41 -130.5t-116 -72.5l154 -284h-106l-149 276h-153v-276h-102v699zM329 362q67 0 106.5 31.5t39.5 93.5q0 68 -38.5 97t-107.5 29h-162v-251h162zM138 -71h314v-70h-314v70z" />
    <glyph glyph-name="uni1E5F" unicode="&#x1e5f;" horiz-adv-x="418" 
d="M84 480h98v-86q30 44 84.5 65t126.5 21v-79q-77 0 -132 -25t-76 -79v-297h-101v480zM50 -71h314v-70h-314v70z" />
    <glyph glyph-name="uni1E60" unicode="&#x1e60;" horiz-adv-x="561" 
d="M249.5 758q-17.5 17 -17.5 41t17.5 41t41.5 17q23 0 40 -17t17 -41t-17 -41t-40 -17q-24 0 -41.5 17zM140.5 -4.5q-58.5 10.5 -95.5 28.5v92q96 -45 207 -45q156 0 156 105q0 36 -17 58t-49 38.5t-104 45.5q-99 40 -143 88t-44 121q0 55 30 97.5t84 66t124 23.5
q57 0 103 -9t90 -29v-88q-87 39 -176 39q-72 0 -110 -26t-38 -74q0 -33 16.5 -55.5t49 -40t96.5 -43.5q71 -29 112 -55t62.5 -63.5t21.5 -93.5q0 -91 -65 -141t-192 -50q-60 0 -118.5 10.5z" />
    <glyph glyph-name="uni1E61" unicode="&#x1e61;" horiz-adv-x="489" 
d="M201.5 551q-17.5 17 -17.5 41t17.5 41t41.5 17q23 0 40 -17t17 -41t-17 -41t-40 -17q-24 0 -41.5 17zM136 -2.5q-56 12.5 -88 33.5v86q39 -23 90 -37.5t99 -14.5q54 0 79 13t25 42q0 22 -11.5 35.5t-39 24.5t-82.5 26q-59 17 -93.5 34.5t-52 44.5t-17.5 70
q0 69 54.5 104.5t146.5 35.5q48 0 94 -9t74 -25v-84q-29 17 -71.5 27t-86.5 10q-53 0 -81 -13t-28 -46q0 -21 12 -34t38.5 -22.5t84.5 -24.5q91 -25 126.5 -59t35.5 -94q0 -62 -51 -99t-151 -37q-50 0 -106 12.5z" />
    <glyph glyph-name="uni1E62" unicode="&#x1e62;" horiz-adv-x="561" 
d="M140.5 -4.5q-58.5 10.5 -95.5 28.5v92q96 -45 207 -45q156 0 156 105q0 36 -17 58t-49 38.5t-104 45.5q-99 40 -143 88t-44 121q0 55 30 97.5t84 66t124 23.5q57 0 103 -9t90 -29v-88q-87 39 -176 39q-72 0 -110 -26t-38 -74q0 -33 16.5 -55.5t49 -40t96.5 -43.5
q71 -29 112 -55t62.5 -63.5t21.5 -93.5q0 -91 -65 -141t-192 -50q-60 0 -118.5 10.5zM227.5 -149q-17.5 17 -17.5 41t17.5 41t41.5 17q23 0 40 -17t17 -41t-17 -41t-40 -17q-24 0 -41.5 17z" />
    <glyph glyph-name="uni1E63" unicode="&#x1e63;" horiz-adv-x="489" 
d="M136 -2.5q-56 12.5 -88 33.5v86q39 -23 90 -37.5t99 -14.5q54 0 79 13t25 42q0 22 -11.5 35.5t-39 24.5t-82.5 26q-59 17 -93.5 34.5t-52 44.5t-17.5 70q0 69 54.5 104.5t146.5 35.5q48 0 94 -9t74 -25v-84q-29 17 -71.5 27t-86.5 10q-53 0 -81 -13t-28 -46q0 -21 12 -34
t38.5 -22.5t84.5 -24.5q91 -25 126.5 -59t35.5 -94q0 -62 -51 -99t-151 -37q-50 0 -106 12.5zM198.5 -149q-17.5 17 -17.5 41t17.5 41t41.5 17q23 0 40 -17t17 -41t-17 -41t-40 -17q-24 0 -41.5 17z" />
    <glyph glyph-name="uni1E6C" unicode="&#x1e6c;" horiz-adv-x="587" 
d="M242 613h-217v86h537v-86h-217v-613h-103v613zM252.5 -149q-17.5 17 -17.5 41t17.5 41t41.5 17q23 0 40 -17t17 -41t-17 -41t-40 -17q-24 0 -41.5 17z" />
    <glyph glyph-name="uni1E6D" unicode="&#x1e6d;" horiz-adv-x="374" 
d="M137.5 27q-39.5 42 -39.5 119v256h-73v78h73v144h102v-144h118v-78h-118v-249q0 -48 18.5 -68t67.5 -20q29 0 58 13v-80q-38 -13 -94 -13q-73 0 -112.5 42zM189.5 -149q-17.5 17 -17.5 41t17.5 41t41.5 17q23 0 40 -17t17 -41t-17 -41t-40 -17q-24 0 -41.5 17z" />
    <glyph glyph-name="uni1E6E" unicode="&#x1e6e;" horiz-adv-x="587" 
d="M242 613h-217v86h537v-86h-217v-613h-103v613zM136 -71h314v-70h-314v70z" />
    <glyph glyph-name="uni1E6F" unicode="&#x1e6f;" horiz-adv-x="377" 
d="M137.5 27q-39.5 42 -39.5 119v256h-73v78h73v144h102v-144h118v-78h-118v-249q0 -48 18.5 -68t67.5 -20q29 0 58 13v-80q-38 -13 -94 -13q-73 0 -112.5 42zM50 -71h314v-70h-314v70z" />
    <glyph glyph-name="Wgrave" unicode="&#x1e80;" horiz-adv-x="1001" 
d="M365 913h107l69 -172h-93zM45 699h106l156 -531l154 531h80l153 -531l156 531h106l-204 -699h-97l-155 528l-154 -528h-97z" />
    <glyph glyph-name="wgrave" unicode="&#x1e81;" horiz-adv-x="818" 
d="M275 706h107l69 -172h-93zM45 480h103l108 -356l107 356h91l107 -356l108 356h104l-156 -480h-97l-111 358l-111 -358h-98z" />
    <glyph glyph-name="Wacute" unicode="&#x1e82;" horiz-adv-x="1001" 
d="M533 913h107l-83 -172h-92zM45 699h106l156 -531l154 531h80l153 -531l156 531h106l-204 -699h-97l-155 528l-154 -528h-97z" />
    <glyph glyph-name="wacute" unicode="&#x1e83;" horiz-adv-x="818" 
d="M438 706h107l-83 -172h-92zM45 480h103l108 -356l107 356h91l107 -356l108 356h104l-156 -480h-97l-111 358l-111 -358h-98z" />
    <glyph glyph-name="Wdieresis" unicode="&#x1e84;" horiz-adv-x="1001" 
d="M345.5 758q-17.5 17 -17.5 41t17.5 41t41.5 17q23 0 40 -17t17 -41t-17 -41t-40 -17q-24 0 -41.5 17zM572.5 758q-17.5 17 -17.5 41t17.5 41t41.5 17q23 0 40 -17t17 -41t-17 -41t-40 -17q-24 0 -41.5 17zM45 699h106l156 -531l154 531h80l153 -531l156 531h106
l-204 -699h-97l-155 528l-154 -528h-97z" />
    <glyph glyph-name="wdieresis" unicode="&#x1e85;" horiz-adv-x="818" 
d="M254.5 551q-17.5 17 -17.5 41t17.5 41t41.5 17q23 0 40 -17t17 -41t-17 -41t-40 -17q-24 0 -41.5 17zM481.5 551q-17.5 17 -17.5 41t17.5 41t41.5 17q23 0 40 -17t17 -41t-17 -41t-40 -17q-24 0 -41.5 17zM45 480h103l108 -356l107 356h91l107 -356l108 356h104
l-156 -480h-97l-111 358l-111 -358h-98z" />
    <glyph glyph-name="uni1E8E" unicode="&#x1e8e;" horiz-adv-x="700" 
d="M308.5 758q-17.5 17 -17.5 41t17.5 41t41.5 17q23 0 40 -17t17 -41t-17 -41t-40 -17q-24 0 -41.5 17zM299 265l-254 434h109l195 -337l198 337h108l-257 -434v-265h-99v265z" />
    <glyph glyph-name="uni1E8F" unicode="&#x1e8f;" horiz-adv-x="587" 
d="M268.5 551q-17.5 17 -17.5 41t17.5 41t41.5 17q23 0 40 -17t17 -41t-17 -41t-40 -17q-24 0 -41.5 17zM77 -187v79q26 -10 64 -10q35 0 55 17.5t36 56.5l23 56l-210 468h104l160 -369l149 369h104l-216 -534q-30 -75 -71.5 -109.5t-107.5 -34.5q-54 0 -90 11z" />
    <glyph glyph-name="uni1E92" unicode="&#x1e92;" horiz-adv-x="618" 
d="M45 69l387 544h-378v86h502v-70l-386 -544h403v-85h-528v69zM277.5 -149q-17.5 17 -17.5 41t17.5 41t41.5 17q23 0 40 -17t17 -41t-17 -41t-40 -17q-24 0 -41.5 17z" />
    <glyph glyph-name="uni1E93" unicode="&#x1e93;" horiz-adv-x="499" 
d="M45 65l273 337h-267v78h393v-66l-273 -336h283v-78h-409v65zM207.5 -149q-17.5 17 -17.5 41t17.5 41t41.5 17q23 0 40 -17t17 -41t-17 -41t-40 -17q-24 0 -41.5 17z" />
    <glyph glyph-name="uni1E97" unicode="&#x1e97;" horiz-adv-x="415" 
d="M37.5 684q-17.5 17 -17.5 41t17.5 41t41.5 17q23 0 40 -17t17 -41t-17 -41t-40 -17q-24 0 -41.5 17zM264.5 684q-17.5 17 -17.5 41t17.5 41t41.5 17q23 0 40 -17t17 -41t-17 -41t-40 -17q-24 0 -41.5 17zM178.5 27q-39.5 42 -39.5 119v256h-73v78h73v144h102v-144h118
v-78h-118v-249q0 -48 18.5 -68t67.5 -20q29 0 58 13v-80q-38 -13 -94 -13q-73 0 -112.5 42z" />
    <glyph glyph-name="uni1E9E" unicode="&#x1e9e;" horiz-adv-x="626" 
d="M225 4v94q46 -21 111 -21q142 0 142 124q0 67 -44.5 95.5t-116.5 28.5h-41v61l141 142q-6 41 -38.5 66.5t-83.5 25.5q-60 0 -96.5 -36.5t-36.5 -110.5v-473h-102v469q0 119 60.5 182t174.5 63q72 0 123.5 -27t78 -73t29.5 -103l-122 -121q90 -10 133.5 -58t43.5 -134
q0 -96 -58 -154.5t-166 -58.5q-86 0 -132 19z" />
    <glyph glyph-name="uni1EA0" unicode="&#x1ea0;" horiz-adv-x="746" 
d="M324 699h98l279 -699h-104l-70 174h-309l-68 -174h-105zM499 259l-126 327l-126 -327h252zM331.5 -149q-17.5 17 -17.5 41t17.5 41t41.5 17q23 0 40 -17t17 -41t-17 -41t-40 -17q-24 0 -41.5 17z" />
    <glyph glyph-name="uni1EA1" unicode="&#x1ea1;" horiz-adv-x="569" 
d="M97.5 29.5q-52.5 44.5 -52.5 120.5q0 80 50.5 123.5t143.5 43.5q99 0 168 -40v25q0 57 -34.5 84.5t-108.5 27.5q-44 0 -85.5 -8.5t-74.5 -23.5v82q30 14 78 22.5t93 8.5q119 0 176.5 -52.5t57.5 -145.5v-297h-95v54q-31 -34 -73.5 -51.5t-103.5 -17.5q-87 0 -139.5 44.5z
M349 81q39 19 58 53v65q-65 42 -145 42q-58 0 -86.5 -22.5t-28.5 -68.5q0 -88 115 -88q48 0 87 19zM238.5 -149q-17.5 17 -17.5 41t17.5 41t41.5 17q23 0 40 -17t17 -41t-17 -41t-40 -17q-24 0 -41.5 17z" />
    <glyph glyph-name="uni1EA2" unicode="&#x1ea2;" horiz-adv-x="746" 
d="M328 813q47 0 69.5 12.5t22.5 40.5q0 23 -15.5 33.5t-50.5 10.5q-13 0 -33.5 -3.5t-29.5 -7.5v55q16 5 40 9t47 4q64 0 97.5 -26.5t33.5 -70.5q0 -37 -24 -62.5t-68 -31.5v-34h-89v71zM324 699h98l279 -699h-104l-70 174h-309l-68 -174h-105zM499 259l-126 327l-126 -327
h252z" />
    <glyph glyph-name="uni1EA3" unicode="&#x1ea3;" horiz-adv-x="569" 
d="M249 606q47 0 69.5 12.5t22.5 40.5q0 23 -15.5 33.5t-50.5 10.5q-13 0 -33.5 -3.5t-29.5 -7.5v55q16 5 40 9t47 4q64 0 97.5 -26.5t33.5 -70.5q0 -37 -24 -62.5t-68 -31.5v-34h-89v71zM97.5 29.5q-52.5 44.5 -52.5 120.5q0 80 50.5 123.5t143.5 43.5q99 0 168 -40v25
q0 57 -34.5 84.5t-108.5 27.5q-44 0 -85.5 -8.5t-74.5 -23.5v82q30 14 78 22.5t93 8.5q119 0 176.5 -52.5t57.5 -145.5v-297h-95v54q-31 -34 -73.5 -51.5t-103.5 -17.5q-87 0 -139.5 44.5zM349 81q39 19 58 53v65q-65 42 -145 42q-58 0 -86.5 -22.5t-28.5 -68.5
q0 -88 115 -88q48 0 87 19z" />
    <glyph glyph-name="uni1EA4" unicode="&#x1ea4;" horiz-adv-x="746" 
d="M547 972h91l-79 -124h-78zM327 892h86l138 -145h-99l-82 90l-82 -90h-99zM324 699h98l279 -699h-104l-70 174h-309l-68 -174h-105zM499 259l-126 327l-126 -327h252z" />
    <glyph glyph-name="uni1EA5" unicode="&#x1ea5;" horiz-adv-x="568" 
d="M477 759h91l-79 -124h-78zM257 679h86l138 -145h-99l-82 90l-82 -90h-99zM97.5 29.5q-52.5 44.5 -52.5 120.5q0 80 50.5 123.5t143.5 43.5q99 0 168 -40v25q0 57 -34.5 84.5t-108.5 27.5q-44 0 -85.5 -8.5t-74.5 -23.5v82q30 14 78 22.5t93 8.5q119 0 176.5 -52.5
t57.5 -145.5v-297h-95v54q-31 -34 -73.5 -51.5t-103.5 -17.5q-87 0 -139.5 44.5zM349 81q39 19 58 53v65q-65 42 -145 42q-58 0 -86.5 -22.5t-28.5 -68.5q0 -88 115 -88q48 0 87 19z" />
    <glyph glyph-name="uni1EA6" unicode="&#x1ea6;" horiz-adv-x="746" 
d="M111 966h91l66 -124h-78zM336 886h86l138 -145h-99l-82 90l-82 -90h-99zM324 699h98l279 -699h-104l-70 174h-309l-68 -174h-105zM499 259l-126 327l-126 -327h252z" />
    <glyph glyph-name="uni1EA7" unicode="&#x1ea7;" horiz-adv-x="569" 
d="M30 759h91l66 -124h-78zM255 679h86l138 -145h-99l-82 90l-82 -90h-99zM97.5 29.5q-52.5 44.5 -52.5 120.5q0 80 50.5 123.5t143.5 43.5q99 0 168 -40v25q0 57 -34.5 84.5t-108.5 27.5q-44 0 -85.5 -8.5t-74.5 -23.5v82q30 14 78 22.5t93 8.5q119 0 176.5 -52.5
t57.5 -145.5v-297h-95v54q-31 -34 -73.5 -51.5t-103.5 -17.5q-87 0 -139.5 44.5zM349 81q39 19 58 53v65q-65 42 -145 42q-58 0 -86.5 -22.5t-28.5 -68.5q0 -88 115 -88q48 0 87 19z" />
    <glyph glyph-name="uni1EA8" unicode="&#x1ea8;" horiz-adv-x="746" 
d="M487 889q30 0 44.5 8t14.5 26q0 15 -10.5 22t-32.5 7q-27 0 -43 -8v43q32 10 66 10q43 0 67 -18.5t24 -49.5q0 -25 -17.5 -43t-48.5 -22v-25h-64v50zM330 892h86l138 -145h-99l-82 90l-82 -90h-99zM324 699h98l279 -699h-104l-70 174h-309l-68 -174h-105zM499 259
l-126 327l-126 -327h252z" />
    <glyph glyph-name="uni1EA9" unicode="&#x1ea9;" horiz-adv-x="565" 
d="M405 676q30 0 44.5 8t14.5 26q0 15 -10.5 22t-32.5 7q-27 0 -43 -8v43q32 10 66 10q43 0 67 -18.5t24 -49.5q0 -25 -17.5 -43t-48.5 -22v-25h-64v50zM248 679h86l138 -145h-99l-82 90l-82 -90h-99zM97.5 29.5q-52.5 44.5 -52.5 120.5q0 80 50.5 123.5t143.5 43.5
q99 0 168 -40v25q0 57 -34.5 84.5t-108.5 27.5q-44 0 -85.5 -8.5t-74.5 -23.5v82q30 14 78 22.5t93 8.5q119 0 176.5 -52.5t57.5 -145.5v-297h-95v54q-31 -34 -73.5 -51.5t-103.5 -17.5q-87 0 -139.5 44.5zM349 81q39 19 58 53v65q-65 42 -145 42q-58 0 -86.5 -22.5
t-28.5 -68.5q0 -88 115 -88q48 0 87 19z" />
    <glyph glyph-name="uni1EAA" unicode="&#x1eaa;" horiz-adv-x="746" 
d="M207 969q25 36 81 36q19 0 36.5 -5.5t43.5 -16.5q25 -11 42 -16.5t34 -5.5q50 0 81 44v-75q-24 -35 -81 -35q-20 0 -38 5.5t-46 17.5q-25 10 -40 15t-32 5q-24 0 -43.5 -10t-37.5 -34v75zM319 886h86l138 -145h-99l-82 90l-82 -90h-99zM324 699h98l279 -699h-104l-70 174
h-309l-68 -174h-105zM499 259l-126 327l-126 -327h252z" />
    <glyph glyph-name="uni1EAB" unicode="&#x1eab;" horiz-adv-x="569" 
d="M140 762q25 36 81 36q19 0 36.5 -5.5t43.5 -16.5q25 -11 42 -16.5t34 -5.5q50 0 81 44v-75q-24 -35 -81 -35q-20 0 -38 5.5t-46 17.5q-25 10 -40 15t-32 5q-24 0 -43.5 -10t-37.5 -34v75zM252 679h86l138 -145h-99l-82 90l-82 -90h-99zM97.5 29.5q-52.5 44.5 -52.5 120.5
q0 80 50.5 123.5t143.5 43.5q99 0 168 -40v25q0 57 -34.5 84.5t-108.5 27.5q-44 0 -85.5 -8.5t-74.5 -23.5v82q30 14 78 22.5t93 8.5q119 0 176.5 -52.5t57.5 -145.5v-297h-95v54q-31 -34 -73.5 -51.5t-103.5 -17.5q-87 0 -139.5 44.5zM349 81q39 19 58 53v65
q-65 42 -145 42q-58 0 -86.5 -22.5t-28.5 -68.5q0 -88 115 -88q48 0 87 19z" />
    <glyph glyph-name="uni1EAC" unicode="&#x1eac;" horiz-adv-x="746" 
d="M329 907h89l142 -166h-102l-84 107l-84 -107h-103zM324 699h98l279 -699h-104l-70 174h-309l-68 -174h-105zM499 259l-126 327l-126 -327h252zM332.5 -149q-17.5 17 -17.5 41t17.5 41t41.5 17q23 0 40 -17t17 -41t-17 -41t-40 -17q-24 0 -41.5 17z" />
    <glyph glyph-name="uni1EAD" unicode="&#x1ead;" horiz-adv-x="569" 
d="M241 700h89l142 -166h-102l-84 107l-84 -107h-103zM97.5 29.5q-52.5 44.5 -52.5 120.5q0 80 50.5 123.5t143.5 43.5q99 0 168 -40v25q0 57 -34.5 84.5t-108.5 27.5q-44 0 -85.5 -8.5t-74.5 -23.5v82q30 14 78 22.5t93 8.5q119 0 176.5 -52.5t57.5 -145.5v-297h-95v54
q-31 -34 -73.5 -51.5t-103.5 -17.5q-87 0 -139.5 44.5zM349 81q39 19 58 53v65q-65 42 -145 42q-58 0 -86.5 -22.5t-28.5 -68.5q0 -88 115 -88q48 0 87 19zM241.5 -149q-17.5 17 -17.5 41t17.5 41t41.5 17q23 0 40 -17t17 -41t-17 -41t-40 -17q-24 0 -41.5 17z" />
    <glyph glyph-name="uni1EAE" unicode="&#x1eae;" horiz-adv-x="746" 
d="M385 998h83l-65 -124h-70zM265.5 779.5q-39.5 37.5 -39.5 99.5h75q0 -33 18.5 -51.5t52.5 -18.5t53 18.5t19 51.5h75q0 -61 -39.5 -99t-107.5 -38q-67 0 -106.5 37.5zM324 699h98l279 -699h-104l-70 174h-309l-68 -174h-105zM499 259l-126 327l-126 -327h252z" />
    <glyph glyph-name="uni1EAF" unicode="&#x1eaf;" horiz-adv-x="569" 
d="M307 791h83l-65 -124h-70zM187.5 572.5q-39.5 37.5 -39.5 99.5h75q0 -33 18.5 -51.5t52.5 -18.5t53 18.5t19 51.5h75q0 -61 -39.5 -99t-107.5 -38q-67 0 -106.5 37.5zM97.5 29.5q-52.5 44.5 -52.5 120.5q0 80 50.5 123.5t143.5 43.5q99 0 168 -40v25q0 57 -34.5 84.5
t-108.5 27.5q-44 0 -85.5 -8.5t-74.5 -23.5v82q30 14 78 22.5t93 8.5q119 0 176.5 -52.5t57.5 -145.5v-297h-95v54q-31 -34 -73.5 -51.5t-103.5 -17.5q-87 0 -139.5 44.5zM349 81q39 19 58 53v65q-65 42 -145 42q-58 0 -86.5 -22.5t-28.5 -68.5q0 -88 115 -88q48 0 87 19z
" />
    <glyph glyph-name="uni1EB0" unicode="&#x1eb0;" horiz-adv-x="746" 
d="M277 998h83l52 -124h-70zM265.5 779.5q-39.5 37.5 -39.5 99.5h75q0 -33 18.5 -51.5t52.5 -18.5t53 18.5t19 51.5h75q0 -61 -39.5 -99t-107.5 -38q-67 0 -106.5 37.5zM324 699h98l279 -699h-104l-70 174h-309l-68 -174h-105zM499 259l-126 327l-126 -327h252z" />
    <glyph glyph-name="uni1EB1" unicode="&#x1eb1;" horiz-adv-x="569" 
d="M198 788h83l52 -124h-70zM186.5 569.5q-39.5 37.5 -39.5 99.5h75q0 -33 18.5 -51.5t52.5 -18.5t53 18.5t19 51.5h75q0 -61 -39.5 -99t-107.5 -38q-67 0 -106.5 37.5zM97.5 29.5q-52.5 44.5 -52.5 120.5q0 80 50.5 123.5t143.5 43.5q99 0 168 -40v25q0 57 -34.5 84.5
t-108.5 27.5q-44 0 -85.5 -8.5t-74.5 -23.5v82q30 14 78 22.5t93 8.5q119 0 176.5 -52.5t57.5 -145.5v-297h-95v54q-31 -34 -73.5 -51.5t-103.5 -17.5q-87 0 -139.5 44.5zM349 81q39 19 58 53v65q-65 42 -145 42q-58 0 -86.5 -22.5t-28.5 -68.5q0 -88 115 -88q48 0 87 19z
" />
    <glyph glyph-name="uni1EB2" unicode="&#x1eb2;" horiz-adv-x="746" 
d="M340 912q31 0 45 7.5t14 25.5q0 16 -10.5 23t-32.5 7q-27 0 -43 -8v42q12 4 30.5 7t35.5 3q43 0 67 -18.5t24 -49.5q0 -25 -17.5 -42.5t-48.5 -22.5v-24h-64v50zM265.5 780q-39.5 38 -39.5 99h74q0 -33 19.5 -52t53.5 -19t53.5 19t19.5 52h73q0 -62 -39.5 -99.5
t-106.5 -37.5q-68 0 -107.5 38zM324 699h98l279 -699h-104l-70 174h-309l-68 -174h-105zM499 259l-126 327l-126 -327h252z" />
    <glyph glyph-name="uni1EB3" unicode="&#x1eb3;" horiz-adv-x="569" 
d="M260 702q31 0 45 7.5t14 25.5q0 16 -10.5 23t-32.5 7q-27 0 -43 -8v42q12 4 30.5 7t35.5 3q43 0 67 -18.5t24 -49.5q0 -25 -17.5 -42.5t-48.5 -22.5v-24h-64v50zM185.5 570q-39.5 38 -39.5 99h74q0 -33 19.5 -52t53.5 -19t53.5 19t19.5 52h73q0 -62 -39.5 -99.5
t-106.5 -37.5q-68 0 -107.5 38zM97.5 29.5q-52.5 44.5 -52.5 120.5q0 80 50.5 123.5t143.5 43.5q99 0 168 -40v25q0 57 -34.5 84.5t-108.5 27.5q-44 0 -85.5 -8.5t-74.5 -23.5v82q30 14 78 22.5t93 8.5q119 0 176.5 -52.5t57.5 -145.5v-297h-95v54q-31 -34 -73.5 -51.5
t-103.5 -17.5q-87 0 -139.5 44.5zM349 81q39 19 58 53v65q-65 42 -145 42q-58 0 -86.5 -22.5t-28.5 -68.5q0 -88 115 -88q48 0 87 19z" />
    <glyph glyph-name="uni1EB4" unicode="&#x1eb4;" horiz-adv-x="746" 
d="M214 981q25 36 81 36q19 0 36.5 -5.5t43.5 -16.5q25 -11 42 -16.5t34 -5.5q50 0 81 44v-75q-24 -35 -81 -35q-20 0 -38 5.5t-46 17.5q-25 10 -40 15t-32 5q-24 0 -43.5 -10t-37.5 -34v75zM268.5 779.5q-39.5 37.5 -39.5 99.5h74q0 -33 19 -51.5t53 -18.5t53 18.5t19 51.5
h75q0 -61 -39.5 -99t-107.5 -38q-67 0 -106.5 37.5zM324 699h98l279 -699h-104l-70 174h-309l-68 -174h-105zM499 259l-126 327l-126 -327h252z" />
    <glyph glyph-name="uni1EB5" unicode="&#x1eb5;" horiz-adv-x="569" 
d="M147 774q25 36 81 36q19 0 36.5 -5.5t43.5 -16.5q25 -11 42 -16.5t34 -5.5q50 0 81 44v-75q-24 -35 -81 -35q-20 0 -38 5.5t-46 17.5q-25 10 -40 15t-32 5q-24 0 -43.5 -10t-37.5 -34v75zM201.5 572.5q-39.5 37.5 -39.5 99.5h74q0 -33 19 -51.5t53 -18.5t53 18.5t19 51.5
h75q0 -61 -39.5 -99t-107.5 -38q-67 0 -106.5 37.5zM97.5 29.5q-52.5 44.5 -52.5 120.5q0 80 50.5 123.5t143.5 43.5q99 0 168 -40v25q0 57 -34.5 84.5t-108.5 27.5q-44 0 -85.5 -8.5t-74.5 -23.5v82q30 14 78 22.5t93 8.5q119 0 176.5 -52.5t57.5 -145.5v-297h-95v54
q-31 -34 -73.5 -51.5t-103.5 -17.5q-87 0 -139.5 44.5zM349 81q39 19 58 53v65q-65 42 -145 42q-58 0 -86.5 -22.5t-28.5 -68.5q0 -88 115 -88q48 0 87 19z" />
    <glyph glyph-name="uni1EB6" unicode="&#x1eb6;" horiz-adv-x="746" 
d="M262.5 781q-40.5 39 -40.5 101h78q0 -34 19 -52.5t54 -18.5t54 18.5t19 52.5h77q0 -62 -40.5 -101t-109.5 -39q-70 0 -110.5 39zM324 699h98l279 -699h-104l-70 174h-309l-68 -174h-105zM499 259l-126 327l-126 -327h252zM332.5 -149q-17.5 17 -17.5 41t17.5 41t41.5 17
q23 0 40 -17t17 -41t-17 -41t-40 -17q-24 0 -41.5 17z" />
    <glyph glyph-name="uni1EB7" unicode="&#x1eb7;" horiz-adv-x="569" 
d="M169.5 574q-40.5 39 -40.5 101h78q0 -34 19 -52.5t54 -18.5t54 18.5t19 52.5h77q0 -62 -40.5 -101t-109.5 -39q-70 0 -110.5 39zM97.5 29.5q-52.5 44.5 -52.5 120.5q0 80 50.5 123.5t143.5 43.5q99 0 168 -40v25q0 57 -34.5 84.5t-108.5 27.5q-44 0 -85.5 -8.5
t-74.5 -23.5v82q30 14 78 22.5t93 8.5q119 0 176.5 -52.5t57.5 -145.5v-297h-95v54q-31 -34 -73.5 -51.5t-103.5 -17.5q-87 0 -139.5 44.5zM349 81q39 19 58 53v65q-65 42 -145 42q-58 0 -86.5 -22.5t-28.5 -68.5q0 -88 115 -88q48 0 87 19zM239.5 -149q-17.5 17 -17.5 41
t17.5 41t41.5 17q23 0 40 -17t17 -41t-17 -41t-40 -17q-24 0 -41.5 17z" />
    <glyph glyph-name="uni1EB8" unicode="&#x1eb8;" horiz-adv-x="571" 
d="M65 699h461v-86h-359v-221h268v-85h-268v-222h359v-85h-461v699zM244.5 -149q-17.5 17 -17.5 41t17.5 41t41.5 17q23 0 40 -17t17 -41t-17 -41t-40 -17q-24 0 -41.5 17z" />
    <glyph glyph-name="uni1EB9" unicode="&#x1eb9;" horiz-adv-x="608" 
d="M120.5 51.5q-75.5 66.5 -75.5 187.5q0 118 67.5 187t192.5 69q83 0 141 -31.5t87.5 -87t29.5 -126.5v-50h-422q5 -68 57.5 -101.5t142.5 -33.5q46 0 93 8.5t83 22.5v-81q-32 -13 -84.5 -21.5t-103.5 -8.5q-133 0 -208.5 66.5zM468 271q-2 68 -44.5 105.5t-120.5 37.5
q-76 0 -118 -39t-44 -104h327zM275.5 -149q-17.5 17 -17.5 41t17.5 41t41.5 17q23 0 40 -17t17 -41t-17 -41t-40 -17q-24 0 -41.5 17z" />
    <glyph glyph-name="uni1EBA" unicode="&#x1eba;" horiz-adv-x="571" 
d="M237 813q47 0 69.5 12.5t22.5 40.5q0 23 -15.5 33.5t-50.5 10.5q-13 0 -33.5 -3.5t-29.5 -7.5v55q16 5 40 9t47 4q64 0 97.5 -26.5t33.5 -70.5q0 -37 -24 -62.5t-68 -31.5v-34h-89v71zM65 699h461v-86h-359v-221h268v-85h-268v-222h359v-85h-461v699z" />
    <glyph glyph-name="uni1EBB" unicode="&#x1ebb;" horiz-adv-x="608" 
d="M264 613q47 0 69.5 12.5t22.5 40.5q0 23 -15.5 33.5t-50.5 10.5q-13 0 -33.5 -3.5t-29.5 -7.5v55q16 5 40 9t47 4q64 0 97.5 -26.5t33.5 -70.5q0 -37 -24 -62.5t-68 -31.5v-34h-89v71zM120.5 51.5q-75.5 66.5 -75.5 187.5q0 118 67.5 187t192.5 69q83 0 141 -31.5
t87.5 -87t29.5 -126.5v-50h-422q5 -68 57.5 -101.5t142.5 -33.5q46 0 93 8.5t83 22.5v-81q-32 -13 -84.5 -21.5t-103.5 -8.5q-133 0 -208.5 66.5zM468 271q-2 68 -44.5 105.5t-120.5 37.5q-76 0 -118 -39t-44 -104h327z" />
    <glyph glyph-name="uni1EBC" unicode="&#x1ebc;" horiz-adv-x="571" 
d="M98 842q31 43 98 43q22 0 42.5 -6t52.5 -19q27 -12 47.5 -18.5t42.5 -6.5q30 0 54 11.5t43 39.5v-86q-30 -42 -97 -42q-25 0 -47.5 6.5t-51.5 19.5q-29 12 -47 18t-39 6q-29 0 -53 -11.5t-45 -40.5v86zM65 699h461v-86h-359v-221h268v-85h-268v-222h359v-85h-461v699z
" />
    <glyph glyph-name="uni1EBD" unicode="&#x1ebd;" horiz-adv-x="608" 
d="M124 632q31 43 98 43q22 0 42.5 -6t52.5 -19q27 -12 47.5 -18.5t42.5 -6.5q30 0 54 11.5t43 39.5v-86q-30 -42 -97 -42q-25 0 -47.5 6.5t-51.5 19.5q-29 12 -47 18t-39 6q-29 0 -53 -11.5t-45 -40.5v86zM120.5 51.5q-75.5 66.5 -75.5 187.5q0 118 67.5 187t192.5 69
q83 0 141 -31.5t87.5 -87t29.5 -126.5v-50h-422q5 -68 57.5 -101.5t142.5 -33.5q46 0 93 8.5t83 22.5v-81q-32 -13 -84.5 -21.5t-103.5 -8.5q-133 0 -208.5 66.5zM468 271q-2 68 -44.5 105.5t-120.5 37.5q-76 0 -118 -39t-44 -104h327z" />
    <glyph glyph-name="uni1EBE" unicode="&#x1ebe;" horiz-adv-x="568" 
d="M452 966h91l-79 -124h-78zM232 886h86l138 -145h-99l-82 90l-82 -90h-99zM65 699h461v-86h-359v-221h268v-85h-268v-222h359v-85h-461v699z" />
    <glyph glyph-name="uni1EBF" unicode="&#x1ebf;" horiz-adv-x="607" 
d="M491 764h91l-79 -124h-78zM271 684h86l138 -145h-99l-82 90l-82 -90h-99zM120.5 51.5q-75.5 66.5 -75.5 187.5q0 118 67.5 187t192.5 69q83 0 141 -31.5t87.5 -87t29.5 -126.5v-50h-422q5 -68 57.5 -101.5t142.5 -33.5q46 0 93 8.5t83 22.5v-81q-32 -13 -84.5 -21.5
t-103.5 -8.5q-133 0 -208.5 66.5zM468 271q-2 68 -44.5 105.5t-120.5 37.5q-76 0 -118 -39t-44 -104h327z" />
    <glyph glyph-name="uni1EC0" unicode="&#x1ec0;" horiz-adv-x="581" 
d="M30 966h91l66 -124h-78zM255 886h86l138 -145h-99l-82 90l-82 -90h-99zM80 699h461v-86h-359v-221h268v-85h-268v-222h359v-85h-461v699z" />
    <glyph glyph-name="uni1EC1" unicode="&#x1ec1;" horiz-adv-x="608" 
d="M35 764h91l66 -124h-78zM260 684h86l138 -145h-99l-82 90l-82 -90h-99zM120.5 51.5q-75.5 66.5 -75.5 187.5q0 118 67.5 187t192.5 69q83 0 141 -31.5t87.5 -87t29.5 -126.5v-50h-422q5 -68 57.5 -101.5t142.5 -33.5q46 0 93 8.5t83 22.5v-81q-32 -13 -84.5 -21.5
t-103.5 -8.5q-133 0 -208.5 66.5zM468 271q-2 68 -44.5 105.5t-120.5 37.5q-76 0 -118 -39t-44 -104h327z" />
    <glyph glyph-name="uni1EC2" unicode="&#x1ec2;" horiz-adv-x="574" 
d="M419 883q30 0 44.5 8t14.5 26q0 15 -10.5 22t-32.5 7q-27 0 -43 -8v43q32 10 66 10q43 0 67 -18.5t24 -49.5q0 -25 -17.5 -43t-48.5 -22v-25h-64v50zM262 886h86l138 -145h-99l-82 90l-82 -90h-99zM65 699h461v-86h-359v-221h268v-85h-268v-222h359v-85h-461v699z" />
    <glyph glyph-name="uni1EC3" unicode="&#x1ec3;" horiz-adv-x="605" 
d="M435 681q30 0 44.5 8t14.5 26q0 15 -10.5 22t-32.5 7q-27 0 -43 -8v43q32 10 66 10q43 0 67 -18.5t24 -49.5q0 -25 -17.5 -43t-48.5 -22v-25h-64v50zM278 684h86l138 -145h-99l-82 90l-82 -90h-99zM120.5 51.5q-75.5 66.5 -75.5 187.5q0 118 67.5 187t192.5 69
q83 0 141 -31.5t87.5 -87t29.5 -126.5v-50h-422q5 -68 57.5 -101.5t142.5 -33.5q46 0 93 8.5t83 22.5v-81q-32 -13 -84.5 -21.5t-103.5 -8.5q-133 0 -208.5 66.5zM468 271q-2 68 -44.5 105.5t-120.5 37.5q-76 0 -118 -39t-44 -104h327z" />
    <glyph glyph-name="uni1EC4" unicode="&#x1ec4;" horiz-adv-x="571" 
d="M152 969q25 36 81 36q19 0 36.5 -5.5t43.5 -16.5q25 -11 42 -16.5t34 -5.5q50 0 81 44v-75q-24 -35 -81 -35q-20 0 -38 5.5t-46 17.5q-25 10 -40 15t-32 5q-24 0 -43.5 -10t-37.5 -34v75zM264 886h86l138 -145h-99l-82 90l-82 -90h-99zM65 699h461v-86h-359v-221h268v-85
h-268v-222h359v-85h-461v699z" />
    <glyph glyph-name="uni1EC5" unicode="&#x1ec5;" horiz-adv-x="608" 
d="M161 767q25 36 81 36q19 0 36.5 -5.5t43.5 -16.5q25 -11 42 -16.5t34 -5.5q50 0 81 44v-75q-24 -35 -81 -35q-20 0 -38 5.5t-46 17.5q-25 10 -40 15t-32 5q-24 0 -43.5 -10t-37.5 -34v75zM273 684h86l138 -145h-99l-82 90l-82 -90h-99zM120.5 51.5
q-75.5 66.5 -75.5 187.5q0 118 67.5 187t192.5 69q83 0 141 -31.5t87.5 -87t29.5 -126.5v-50h-422q5 -68 57.5 -101.5t142.5 -33.5q46 0 93 8.5t83 22.5v-81q-32 -13 -84.5 -21.5t-103.5 -8.5q-133 0 -208.5 66.5zM468 271q-2 68 -44.5 105.5t-120.5 37.5q-76 0 -118 -39
t-44 -104h327z" />
    <glyph glyph-name="uni1EC6" unicode="&#x1ec6;" horiz-adv-x="571" 
d="M239 918h89l142 -166h-102l-84 107l-84 -107h-103zM65 699h461v-86h-359v-221h268v-85h-268v-222h359v-85h-461v699zM242.5 -149q-17.5 17 -17.5 41t17.5 41t41.5 17q23 0 40 -17t17 -41t-17 -41t-40 -17q-24 0 -41.5 17z" />
    <glyph glyph-name="uni1EC7" unicode="&#x1ec7;" horiz-adv-x="608" 
d="M266 704h89l142 -166h-102l-84 107l-84 -107h-103zM120.5 51.5q-75.5 66.5 -75.5 187.5q0 118 67.5 187t192.5 69q83 0 141 -31.5t87.5 -87t29.5 -126.5v-50h-422q5 -68 57.5 -101.5t142.5 -33.5q46 0 93 8.5t83 22.5v-81q-32 -13 -84.5 -21.5t-103.5 -8.5
q-133 0 -208.5 66.5zM468 271q-2 68 -44.5 105.5t-120.5 37.5q-76 0 -118 -39t-44 -104h327zM269.5 -149q-17.5 17 -17.5 41t17.5 41t41.5 17q23 0 40 -17t17 -41t-17 -41t-40 -17q-24 0 -41.5 17z" />
    <glyph glyph-name="uni1EC8" unicode="&#x1ec8;" horiz-adv-x="236" 
d="M72 813q47 0 69.5 12.5t22.5 40.5q0 23 -15.5 33.5t-50.5 10.5q-13 0 -33.5 -3.5t-29.5 -7.5v55q16 5 40 9t47 4q64 0 97.5 -26.5t33.5 -70.5q0 -37 -24 -62.5t-68 -31.5v-34h-89v71zM66 699h103v-699h-103v699z" />
    <glyph glyph-name="uni1EC9" unicode="&#x1ec9;" horiz-adv-x="232" 
d="M71 606q47 0 69.5 12.5t22.5 40.5q0 23 -15.5 33.5t-50.5 10.5q-13 0 -33.5 -3.5t-29.5 -7.5v55q16 5 40 9t47 4q64 0 97.5 -26.5t33.5 -70.5q0 -37 -24 -62.5t-68 -31.5v-34h-89v71zM65 480h102v-480h-102v480z" />
    <glyph glyph-name="uni1ECA" unicode="&#x1eca;" horiz-adv-x="236" 
d="M66 699h103v-699h-103v699zM77.5 -149q-17.5 17 -17.5 41t17.5 41t41.5 17q23 0 40 -17t17 -41t-17 -41t-40 -17q-24 0 -41.5 17z" />
    <glyph glyph-name="uni1ECB" unicode="&#x1ecb;" horiz-adv-x="251" 
d="M82 591q-17 17 -17 42t17 42t42 17q26 0 43.5 -17t17.5 -42t-17.5 -42t-43.5 -17q-25 0 -42 17zM73 480h103v-480h-103v480zM84.5 -149q-17.5 17 -17.5 41t17.5 41t41.5 17q23 0 40 -17t17 -41t-17 -41t-40 -17q-24 0 -41.5 17z" />
    <glyph glyph-name="uni1ECC" unicode="&#x1ecc;" horiz-adv-x="826" 
d="M225 30.5q-84 45.5 -132 128.5t-48 190t48 190t132 129t188 46t188 -46t132 -129t48 -190t-48 -190t-132 -128.5t-188 -45.5t-188 45.5zM547.5 110.5q60.5 33.5 95.5 95t35 143.5q0 81 -34.5 142.5t-94.5 95t-134 33.5q-75 0 -135.5 -33t-96 -95t-35.5 -143
q0 -82 35 -143.5t95.5 -95t134.5 -33.5t134.5 33.5zM372.5 -149q-17.5 17 -17.5 41t17.5 41t41.5 17q23 0 40 -17t17 -41t-17 -41t-40 -17q-24 0 -41.5 17z" />
    <glyph glyph-name="uni1ECD" unicode="&#x1ecd;" horiz-adv-x="637" 
d="M175.5 15.5q-61.5 30.5 -96 88t-34.5 135.5q0 77 34 135t96 89.5t143 31.5t143 -31.5t96.5 -89.5t34.5 -135q0 -78 -34.5 -135.5t-96.5 -88t-143 -30.5t-142.5 30.5zM442 113q46 48 46 126q0 81 -46 128t-124 47t-124 -47t-46 -128q0 -78 46 -126t124 -48t124 48z
M277.5 -149q-17.5 17 -17.5 41t17.5 41t41.5 17q23 0 40 -17t17 -41t-17 -41t-40 -17q-24 0 -41.5 17z" />
    <glyph glyph-name="uni1ECE" unicode="&#x1ece;" horiz-adv-x="826" 
d="M367 813q47 0 69.5 12.5t22.5 40.5q0 23 -15.5 33.5t-50.5 10.5q-13 0 -33.5 -3.5t-29.5 -7.5v55q16 5 40 9t47 4q64 0 97.5 -26.5t33.5 -70.5q0 -37 -24 -62.5t-68 -31.5v-34h-89v71zM225 30.5q-84 45.5 -132 128.5t-48 190t48 190t132 129t188 46t188 -46t132 -129
t48 -190t-48 -190t-132 -128.5t-188 -45.5t-188 45.5zM547.5 110.5q60.5 33.5 95.5 95t35 143.5q0 81 -34.5 142.5t-94.5 95t-134 33.5q-75 0 -135.5 -33t-96 -95t-35.5 -143q0 -82 35 -143.5t95.5 -95t134.5 -33.5t134.5 33.5z" />
    <glyph glyph-name="uni1ECF" unicode="&#x1ecf;" horiz-adv-x="637" 
d="M274 606q47 0 69.5 12.5t22.5 40.5q0 23 -15.5 33.5t-50.5 10.5q-13 0 -33.5 -3.5t-29.5 -7.5v55q16 5 40 9t47 4q64 0 97.5 -26.5t33.5 -70.5q0 -37 -24 -62.5t-68 -31.5v-34h-89v71zM175.5 15.5q-61.5 30.5 -96 88t-34.5 135.5q0 77 34 135t96 89.5t143 31.5t143 -31.5
t96.5 -89.5t34.5 -135q0 -78 -34.5 -135.5t-96.5 -88t-143 -30.5t-142.5 30.5zM442 113q46 48 46 126q0 81 -46 128t-124 47t-124 -47t-46 -128q0 -78 46 -126t124 -48t124 48z" />
    <glyph glyph-name="uni1ED0" unicode="&#x1ed0;" horiz-adv-x="826" 
d="M601 966h91l-79 -124h-78zM381 886h86l138 -145h-99l-82 90l-82 -90h-99zM225 30.5q-84 45.5 -132 128.5t-48 190t48 190t132 129t188 46t188 -46t132 -129t48 -190t-48 -190t-132 -128.5t-188 -45.5t-188 45.5zM547.5 110.5q60.5 33.5 95.5 95t35 143.5
q0 81 -34.5 142.5t-94.5 95t-134 33.5q-75 0 -135.5 -33t-96 -95t-35.5 -143q0 -82 35 -143.5t95.5 -95t134.5 -33.5t134.5 33.5z" />
    <glyph glyph-name="uni1ED1" unicode="&#x1ed1;" horiz-adv-x="637" 
d="M498 759h91l-79 -124h-78zM278 679h86l138 -145h-99l-82 90l-82 -90h-99zM175.5 15.5q-61.5 30.5 -96 88t-34.5 135.5q0 77 34 135t96 89.5t143 31.5t143 -31.5t96.5 -89.5t34.5 -135q0 -78 -34.5 -135.5t-96.5 -88t-143 -30.5t-142.5 30.5zM442 113q46 48 46 126
q0 81 -46 128t-124 47t-124 -47t-46 -128q0 -78 46 -126t124 -48t124 48z" />
    <glyph glyph-name="uni1ED2" unicode="&#x1ed2;" horiz-adv-x="826" 
d="M147 966h91l66 -124h-78zM372 886h86l138 -145h-99l-82 90l-82 -90h-99zM225 30.5q-84 45.5 -132 128.5t-48 190t48 190t132 129t188 46t188 -46t132 -129t48 -190t-48 -190t-132 -128.5t-188 -45.5t-188 45.5zM547.5 110.5q60.5 33.5 95.5 95t35 143.5q0 81 -34.5 142.5
t-94.5 95t-134 33.5q-75 0 -135.5 -33t-96 -95t-35.5 -143q0 -82 35 -143.5t95.5 -95t134.5 -33.5t134.5 33.5z" />
    <glyph glyph-name="uni1ED3" unicode="&#x1ed3;" horiz-adv-x="637" 
d="M57 759h91l66 -124h-78zM282 679h86l138 -145h-99l-82 90l-82 -90h-99zM175.5 15.5q-61.5 30.5 -96 88t-34.5 135.5q0 77 34 135t96 89.5t143 31.5t143 -31.5t96.5 -89.5t34.5 -135q0 -78 -34.5 -135.5t-96.5 -88t-143 -30.5t-142.5 30.5zM442 113q46 48 46 126
q0 81 -46 128t-124 47t-124 -47t-46 -128q0 -78 46 -126t124 -48t124 48z" />
    <glyph glyph-name="uni1ED4" unicode="&#x1ed4;" horiz-adv-x="826" 
d="M532 883q30 0 44.5 8t14.5 26q0 15 -10.5 22t-32.5 7q-27 0 -43 -8v43q32 10 66 10q43 0 67 -18.5t24 -49.5q0 -25 -17.5 -43t-48.5 -22v-25h-64v50zM375 886h86l138 -145h-99l-82 90l-82 -90h-99zM225 30.5q-84 45.5 -132 128.5t-48 190t48 190t132 129t188 46t188 -46
t132 -129t48 -190t-48 -190t-132 -128.5t-188 -45.5t-188 45.5zM547.5 110.5q60.5 33.5 95.5 95t35 143.5q0 81 -34.5 142.5t-94.5 95t-134 33.5q-75 0 -135.5 -33t-96 -95t-35.5 -143q0 -82 35 -143.5t95.5 -95t134.5 -33.5t134.5 33.5z" />
    <glyph glyph-name="uni1ED5" unicode="&#x1ed5;" horiz-adv-x="637" 
d="M435 676q30 0 44.5 8t14.5 26q0 15 -10.5 22t-32.5 7q-27 0 -43 -8v43q32 10 66 10q43 0 67 -18.5t24 -49.5q0 -25 -17.5 -43t-48.5 -22v-25h-64v50zM278 679h86l138 -145h-99l-82 90l-82 -90h-99zM175.5 15.5q-61.5 30.5 -96 88t-34.5 135.5q0 77 34 135t96 89.5
t143 31.5t143 -31.5t96.5 -89.5t34.5 -135q0 -78 -34.5 -135.5t-96.5 -88t-143 -30.5t-142.5 30.5zM442 113q46 48 46 126q0 81 -46 128t-124 47t-124 -47t-46 -128q0 -78 46 -126t124 -48t124 48z" />
    <glyph glyph-name="uni1ED6" unicode="&#x1ed6;" horiz-adv-x="826" 
d="M254 981q25 36 81 36q19 0 36.5 -5.5t43.5 -16.5q25 -11 42 -16.5t34 -5.5q50 0 81 44v-75q-24 -35 -81 -35q-20 0 -38 5.5t-46 17.5q-25 10 -40 15t-32 5q-24 0 -43.5 -10t-37.5 -34v75zM308.5 779.5q-39.5 37.5 -39.5 99.5h74q0 -33 19 -51.5t53 -18.5t53 18.5t19 51.5
h75q0 -61 -39.5 -99t-107.5 -38q-67 0 -106.5 37.5zM225 30.5q-84 45.5 -132 128.5t-48 190t48 190t132 129t188 46t188 -46t132 -129t48 -190t-48 -190t-132 -128.5t-188 -45.5t-188 45.5zM547.5 110.5q60.5 33.5 95.5 95t35 143.5q0 81 -34.5 142.5t-94.5 95t-134 33.5
q-75 0 -135.5 -33t-96 -95t-35.5 -143q0 -82 35 -143.5t95.5 -95t134.5 -33.5t134.5 33.5z" />
    <glyph glyph-name="uni1ED7" unicode="&#x1ed7;" horiz-adv-x="637" 
d="M160 774q25 36 81 36q19 0 36.5 -5.5t43.5 -16.5q25 -11 42 -16.5t34 -5.5q50 0 81 44v-75q-24 -35 -81 -35q-20 0 -38 5.5t-46 17.5q-25 10 -40 15t-32 5q-24 0 -43.5 -10t-37.5 -34v75zM214.5 572.5q-39.5 37.5 -39.5 99.5h74q0 -33 19 -51.5t53 -18.5t53 18.5t19 51.5
h75q0 -61 -39.5 -99t-107.5 -38q-67 0 -106.5 37.5zM175.5 15.5q-61.5 30.5 -96 88t-34.5 135.5q0 77 34 135t96 89.5t143 31.5t143 -31.5t96.5 -89.5t34.5 -135q0 -78 -34.5 -135.5t-96.5 -88t-143 -30.5t-142.5 30.5zM442 113q46 48 46 126q0 81 -46 128t-124 47t-124 -47
t-46 -128q0 -78 46 -126t124 -48t124 48z" />
    <glyph glyph-name="uni1ED8" unicode="&#x1ed8;" horiz-adv-x="826" 
d="M368 907h89l142 -166h-102l-84 107l-84 -107h-103zM225 30.5q-84 45.5 -132 128.5t-48 190t48 190t132 129t188 46t188 -46t132 -129t48 -190t-48 -190t-132 -128.5t-188 -45.5t-188 45.5zM547.5 110.5q60.5 33.5 95.5 95t35 143.5q0 81 -34.5 142.5t-94.5 95t-134 33.5
q-75 0 -135.5 -33t-96 -95t-35.5 -143q0 -82 35 -143.5t95.5 -95t134.5 -33.5t134.5 33.5zM372.5 -149q-17.5 17 -17.5 41t17.5 41t41.5 17q23 0 40 -17t17 -41t-17 -41t-40 -17q-24 0 -41.5 17z" />
    <glyph glyph-name="uni1ED9" unicode="&#x1ed9;" horiz-adv-x="637" 
d="M274 700h89l142 -166h-102l-84 107l-84 -107h-103zM175.5 15.5q-61.5 30.5 -96 88t-34.5 135.5q0 77 34 135t96 89.5t143 31.5t143 -31.5t96.5 -89.5t34.5 -135q0 -78 -34.5 -135.5t-96.5 -88t-143 -30.5t-142.5 30.5zM442 113q46 48 46 126q0 81 -46 128t-124 47
t-124 -47t-46 -128q0 -78 46 -126t124 -48t124 48zM277.5 -149q-17.5 17 -17.5 41t17.5 41t41.5 17q23 0 40 -17t17 -41t-17 -41t-40 -17q-24 0 -41.5 17z" />
    <glyph glyph-name="uni1EDA" unicode="&#x1eda;" horiz-adv-x="865" 
d="M439 913h107l-83 -172h-92zM225 30.5q-84 45.5 -132 128.5t-48 190t48 190t132 129t188 46q73 0 137.5 -23.5t113.5 -66.5q46 1 66.5 21.5t20.5 65.5v36h94v-41q0 -56 -32 -99.5t-86 -57.5q54 -89 54 -200q0 -107 -48 -190t-132 -128.5t-188 -45.5t-188 45.5zM545.5 113
q59.5 33 94.5 94t35 142q0 80 -34 141t-93.5 94t-132.5 33q-74 0 -134 -33t-95 -94t-35 -141q0 -81 35 -142t94.5 -94t132.5 -33t132.5 33z" />
    <glyph glyph-name="uni1EDB" unicode="&#x1edb;" horiz-adv-x="680" 
d="M331 706h107l-83 -172h-92zM175.5 15.5q-61.5 30.5 -96 88t-34.5 135.5q0 77 34 135t96 89.5t143 31.5q55 0 102.5 -15t82.5 -44q37 7 55.5 29t18.5 57v36h83v-41q0 -49 -28 -87.5t-76 -54.5q36 -59 36 -136q0 -78 -34.5 -135.5t-96.5 -88t-143 -30.5t-142.5 30.5z
M442 113q46 48 46 126q0 81 -46 128t-124 47t-124 -47t-46 -128q0 -78 46 -126t124 -48t124 48z" />
    <glyph glyph-name="uni1EDC" unicode="&#x1edc;" horiz-adv-x="865" 
d="M279 913h107l69 -172h-93zM225 30.5q-84 45.5 -132 128.5t-48 190t48 190t132 129t188 46q73 0 137.5 -23.5t113.5 -66.5q46 1 66.5 21.5t20.5 65.5v36h94v-41q0 -56 -32 -99.5t-86 -57.5q54 -89 54 -200q0 -107 -48 -190t-132 -128.5t-188 -45.5t-188 45.5zM545.5 113
q59.5 33 94.5 94t35 142q0 80 -34 141t-93.5 94t-132.5 33q-74 0 -134 -33t-95 -94t-35 -141q0 -81 35 -142t94.5 -94t132.5 -33t132.5 33z" />
    <glyph glyph-name="uni1EDD" unicode="&#x1edd;" horiz-adv-x="680" 
d="M187 706h107l69 -172h-93zM175.5 15.5q-61.5 30.5 -96 88t-34.5 135.5q0 77 34 135t96 89.5t143 31.5q55 0 102.5 -15t82.5 -44q37 7 55.5 29t18.5 57v36h83v-41q0 -49 -28 -87.5t-76 -54.5q36 -59 36 -136q0 -78 -34.5 -135.5t-96.5 -88t-143 -30.5t-142.5 30.5z
M442 113q46 48 46 126q0 81 -46 128t-124 47t-124 -47t-46 -128q0 -78 46 -126t124 -48t124 48z" />
    <glyph glyph-name="uni1EDE" unicode="&#x1ede;" horiz-adv-x="865" 
d="M369 813q47 0 69.5 12.5t22.5 40.5q0 23 -15.5 33.5t-50.5 10.5q-13 0 -33.5 -3.5t-29.5 -7.5v55q16 5 40 9t47 4q64 0 97.5 -26.5t33.5 -70.5q0 -37 -24 -62.5t-68 -31.5v-34h-89v71zM225 30.5q-84 45.5 -132 128.5t-48 190t48 190t132 129t188 46q73 0 137.5 -23.5
t113.5 -66.5q46 1 66.5 21.5t20.5 65.5v36h94v-41q0 -56 -32 -99.5t-86 -57.5q54 -89 54 -200q0 -107 -48 -190t-132 -128.5t-188 -45.5t-188 45.5zM545.5 113q59.5 33 94.5 94t35 142q0 80 -34 141t-93.5 94t-132.5 33q-74 0 -134 -33t-95 -94t-35 -141q0 -81 35 -142
t94.5 -94t132.5 -33t132.5 33z" />
    <glyph glyph-name="uni1EDF" unicode="&#x1edf;" horiz-adv-x="680" 
d="M267 606q47 0 69.5 12.5t22.5 40.5q0 23 -15.5 33.5t-50.5 10.5q-13 0 -33.5 -3.5t-29.5 -7.5v55q16 5 40 9t47 4q64 0 97.5 -26.5t33.5 -70.5q0 -37 -24 -62.5t-68 -31.5v-34h-89v71zM175.5 15.5q-61.5 30.5 -96 88t-34.5 135.5q0 77 34 135t96 89.5t143 31.5
q55 0 102.5 -15t82.5 -44q37 7 55.5 29t18.5 57v36h83v-41q0 -49 -28 -87.5t-76 -54.5q36 -59 36 -136q0 -78 -34.5 -135.5t-96.5 -88t-143 -30.5t-142.5 30.5zM442 113q46 48 46 126q0 81 -46 128t-124 47t-124 -47t-46 -128q0 -78 46 -126t124 -48t124 48z" />
    <glyph glyph-name="uni1EE0" unicode="&#x1ee0;" horiz-adv-x="865" 
d="M241 828q31 43 98 43q22 0 42.5 -6t52.5 -19q27 -12 47.5 -18.5t42.5 -6.5q30 0 54 11.5t43 39.5v-86q-30 -42 -97 -42q-25 0 -47.5 6.5t-51.5 19.5q-29 12 -47 18t-39 6q-29 0 -53 -11.5t-45 -40.5v86zM225 30.5q-84 45.5 -132 128.5t-48 190t48 190t132 129t188 46
q73 0 137.5 -23.5t113.5 -66.5q46 1 66.5 21.5t20.5 65.5v36h94v-41q0 -56 -32 -99.5t-86 -57.5q54 -89 54 -200q0 -107 -48 -190t-132 -128.5t-188 -45.5t-188 45.5zM545.5 113q59.5 33 94.5 94t35 142q0 80 -34 141t-93.5 94t-132.5 33q-74 0 -134 -33t-95 -94t-35 -141
q0 -81 35 -142t94.5 -94t132.5 -33t132.5 33z" />
    <glyph glyph-name="uni1EE1" unicode="&#x1ee1;" horiz-adv-x="680" 
d="M126 627q31 43 98 43q22 0 42.5 -6t52.5 -19q27 -12 47.5 -18.5t42.5 -6.5q30 0 54 11.5t43 39.5v-86q-30 -42 -97 -42q-25 0 -47.5 6.5t-51.5 19.5q-29 12 -47 18t-39 6q-29 0 -53 -11.5t-45 -40.5v86zM175.5 15.5q-61.5 30.5 -96 88t-34.5 135.5q0 77 34 135t96 89.5
t143 31.5q55 0 102.5 -15t82.5 -44q37 7 55.5 29t18.5 57v36h83v-41q0 -49 -28 -87.5t-76 -54.5q36 -59 36 -136q0 -78 -34.5 -135.5t-96.5 -88t-143 -30.5t-142.5 30.5zM442 113q46 48 46 126q0 81 -46 128t-124 47t-124 -47t-46 -128q0 -78 46 -126t124 -48t124 48z" />
    <glyph glyph-name="uni1EE2" unicode="&#x1ee2;" horiz-adv-x="865" 
d="M225 30.5q-84 45.5 -132 128.5t-48 190t48 190t132 129t188 46q73 0 137.5 -23.5t113.5 -66.5q46 1 66.5 21.5t20.5 65.5v36h94v-41q0 -56 -32 -99.5t-86 -57.5q54 -89 54 -200q0 -107 -48 -190t-132 -128.5t-188 -45.5t-188 45.5zM545.5 113q59.5 33 94.5 94t35 142
q0 80 -34 141t-93.5 94t-132.5 33q-74 0 -134 -33t-95 -94t-35 -141q0 -81 35 -142t94.5 -94t132.5 -33t132.5 33zM369.5 -149q-17.5 17 -17.5 41t17.5 41t41.5 17q23 0 40 -17t17 -41t-17 -41t-40 -17q-24 0 -41.5 17z" />
    <glyph glyph-name="uni1EE3" unicode="&#x1ee3;" horiz-adv-x="680" 
d="M175.5 15.5q-61.5 30.5 -96 88t-34.5 135.5q0 77 34 135t96 89.5t143 31.5q55 0 102.5 -15t82.5 -44q37 7 55.5 29t18.5 57v36h83v-41q0 -49 -28 -87.5t-76 -54.5q36 -59 36 -136q0 -78 -34.5 -135.5t-96.5 -88t-143 -30.5t-142.5 30.5zM442 113q46 48 46 126
q0 81 -46 128t-124 47t-124 -47t-46 -128q0 -78 46 -126t124 -48t124 48zM273.5 -149q-17.5 17 -17.5 41t17.5 41t41.5 17q23 0 40 -17t17 -41t-17 -41t-40 -17q-24 0 -41.5 17z" />
    <glyph glyph-name="uni1EE4" unicode="&#x1ee4;" horiz-adv-x="697" 
d="M133 58.5q-73 73.5 -73 202.5v438h102v-442q0 -89 50 -134.5t137 -45.5q86 0 136 45.5t50 134.5v442h102v-438q0 -128 -73 -202t-215 -74q-143 0 -216 73.5zM307.5 -149q-17.5 17 -17.5 41t17.5 41t41.5 17q23 0 40 -17t17 -41t-17 -41t-40 -17q-24 0 -41.5 17z" />
    <glyph glyph-name="uni1EE5" unicode="&#x1ee5;" horiz-adv-x="600" 
d="M109.5 37q-49.5 52 -49.5 139v304h101v-300q0 -115 115 -115q101 0 158 91v324h101v-480h-98v68q-34 -43 -80.5 -63t-100.5 -20q-97 0 -146.5 52zM249.5 -149q-17.5 17 -17.5 41t17.5 41t41.5 17q23 0 40 -17t17 -41t-17 -41t-40 -17q-24 0 -41.5 17z" />
    <glyph glyph-name="uni1EE6" unicode="&#x1ee6;" horiz-adv-x="697" 
d="M294 813q47 0 69.5 12.5t22.5 40.5q0 23 -15.5 33.5t-50.5 10.5q-13 0 -33.5 -3.5t-29.5 -7.5v55q16 5 40 9t47 4q64 0 97.5 -26.5t33.5 -70.5q0 -37 -24 -62.5t-68 -31.5v-34h-89v71zM133 58.5q-73 73.5 -73 202.5v438h102v-442q0 -89 50 -134.5t137 -45.5
q86 0 136 45.5t50 134.5v442h102v-438q0 -128 -73 -202t-215 -74q-143 0 -216 73.5z" />
    <glyph glyph-name="uni1EE7" unicode="&#x1ee7;" horiz-adv-x="600" 
d="M242 606q47 0 69.5 12.5t22.5 40.5q0 23 -15.5 33.5t-50.5 10.5q-13 0 -33.5 -3.5t-29.5 -7.5v55q16 5 40 9t47 4q64 0 97.5 -26.5t33.5 -70.5q0 -37 -24 -62.5t-68 -31.5v-34h-89v71zM109.5 37q-49.5 52 -49.5 139v304h101v-300q0 -115 115 -115q101 0 158 91v324h101
v-480h-98v68q-34 -43 -80.5 -63t-100.5 -20q-97 0 -146.5 52z" />
    <glyph glyph-name="uni1EE8" unicode="&#x1ee8;" horiz-adv-x="840" 
d="M365 913h107l-83 -172h-92zM133 58.5q-73 73.5 -73 202.5v438h105v-442q0 -89 48.5 -133t135.5 -44q86 0 134.5 44t48.5 133v442h105v-75q49 0 69 20t20 67v36h94v-41q0 -71 -47 -117t-136 -46v-282q0 -128 -73 -202t-215 -74q-143 0 -216 73.5z" />
    <glyph glyph-name="uni1EE9" unicode="&#x1ee9;" horiz-adv-x="721" 
d="M310 706h107l-83 -172h-92zM108 36.5q-48 51.5 -48 137.5v306h101v-297q0 -118 115 -118q48 0 88.5 22.5t69.5 68.5v324h101v-46q40 2 61.5 24.5t21.5 60.5v39h83v-41q0 -64 -44.5 -106.5t-121.5 -44.5v-366h-98v71q-35 -45 -83 -65.5t-101 -20.5q-97 0 -145 51.5z" />
    <glyph glyph-name="uni1EEA" unicode="&#x1eea;" horiz-adv-x="840" 
d="M227 913h107l69 -172h-93zM133 58.5q-73 73.5 -73 202.5v438h105v-442q0 -89 48.5 -133t135.5 -44q86 0 134.5 44t48.5 133v442h105v-75q49 0 69 20t20 67v36h94v-41q0 -71 -47 -117t-136 -46v-282q0 -128 -73 -202t-215 -74q-143 0 -216 73.5z" />
    <glyph glyph-name="uni1EEB" unicode="&#x1eeb;" horiz-adv-x="721" 
d="M170 706h107l69 -172h-93zM108 36.5q-48 51.5 -48 137.5v306h101v-297q0 -118 115 -118q48 0 88.5 22.5t69.5 68.5v324h101v-46q40 2 61.5 24.5t21.5 60.5v39h83v-41q0 -64 -44.5 -106.5t-121.5 -44.5v-366h-98v71q-35 -45 -83 -65.5t-101 -20.5q-97 0 -145 51.5z" />
    <glyph glyph-name="uni1EEC" unicode="&#x1eec;" horiz-adv-x="840" 
d="M298 813q47 0 69.5 12.5t22.5 40.5q0 23 -15.5 33.5t-50.5 10.5q-13 0 -33.5 -3.5t-29.5 -7.5v55q16 5 40 9t47 4q64 0 97.5 -26.5t33.5 -70.5q0 -37 -24 -62.5t-68 -31.5v-34h-89v71zM133 58.5q-73 73.5 -73 202.5v438h105v-442q0 -89 48.5 -133t135.5 -44
q86 0 134.5 44t48.5 133v442h105v-75q49 0 69 20t20 67v36h94v-41q0 -71 -47 -117t-136 -46v-282q0 -128 -73 -202t-215 -74q-143 0 -216 73.5z" />
    <glyph glyph-name="uni1EED" unicode="&#x1eed;" horiz-adv-x="721" 
d="M246 606q47 0 69.5 12.5t22.5 40.5q0 23 -15.5 33.5t-50.5 10.5q-13 0 -33.5 -3.5t-29.5 -7.5v55q16 5 40 9t47 4q64 0 97.5 -26.5t33.5 -70.5q0 -37 -24 -62.5t-68 -31.5v-34h-89v71zM108 36.5q-48 51.5 -48 137.5v306h101v-297q0 -118 115 -118q48 0 88.5 22.5
t69.5 68.5v324h101v-46q40 2 61.5 24.5t21.5 60.5v39h83v-41q0 -64 -44.5 -106.5t-121.5 -44.5v-366h-98v71q-35 -45 -83 -65.5t-101 -20.5q-97 0 -145 51.5z" />
    <glyph glyph-name="uni1EEE" unicode="&#x1eee;" horiz-adv-x="840" 
d="M166 828q31 43 98 43q22 0 42.5 -6t52.5 -19q27 -12 47.5 -18.5t42.5 -6.5q30 0 54 11.5t43 39.5v-86q-30 -42 -97 -42q-25 0 -47.5 6.5t-51.5 19.5q-29 12 -47 18t-39 6q-29 0 -53 -11.5t-45 -40.5v86zM133 58.5q-73 73.5 -73 202.5v438h105v-442q0 -89 48.5 -133
t135.5 -44q86 0 134.5 44t48.5 133v442h105v-75q49 0 69 20t20 67v36h94v-41q0 -71 -47 -117t-136 -46v-282q0 -128 -73 -202t-215 -74q-143 0 -216 73.5z" />
    <glyph glyph-name="uni1EEF" unicode="&#x1eef;" horiz-adv-x="721" 
d="M111 621q31 43 98 43q22 0 42.5 -6t52.5 -19q27 -12 47.5 -18.5t42.5 -6.5q30 0 54 11.5t43 39.5v-86q-30 -42 -97 -42q-25 0 -47.5 6.5t-51.5 19.5q-29 12 -47 18t-39 6q-29 0 -53 -11.5t-45 -40.5v86zM108 36.5q-48 51.5 -48 137.5v306h101v-297q0 -118 115 -118
q48 0 88.5 22.5t69.5 68.5v324h101v-46q40 2 61.5 24.5t21.5 60.5v39h83v-41q0 -64 -44.5 -106.5t-121.5 -44.5v-366h-98v71q-35 -45 -83 -65.5t-101 -20.5q-97 0 -145 51.5z" />
    <glyph glyph-name="uni1EF0" unicode="&#x1ef0;" horiz-adv-x="840" 
d="M133 58.5q-73 73.5 -73 202.5v438h105v-442q0 -89 48.5 -133t135.5 -44q86 0 134.5 44t48.5 133v442h105v-75q49 0 69 20t20 67v36h94v-41q0 -71 -47 -117t-136 -46v-282q0 -128 -73 -202t-215 -74q-143 0 -216 73.5zM304.5 -149q-17.5 17 -17.5 41t17.5 41t41.5 17
q23 0 40 -17t17 -41t-17 -41t-40 -17q-24 0 -41.5 17z" />
    <glyph glyph-name="uni1EF1" unicode="&#x1ef1;" horiz-adv-x="721" 
d="M108 36.5q-48 51.5 -48 137.5v306h101v-297q0 -118 115 -118q48 0 88.5 22.5t69.5 68.5v324h101v-46q40 2 61.5 24.5t21.5 60.5v39h83v-41q0 -64 -44.5 -106.5t-121.5 -44.5v-366h-98v71q-35 -45 -83 -65.5t-101 -20.5q-97 0 -145 51.5zM253.5 -149q-17.5 17 -17.5 41
t17.5 41t41.5 17q23 0 40 -17t17 -41t-17 -41t-40 -17q-24 0 -41.5 17z" />
    <glyph glyph-name="Ygrave" unicode="&#x1ef2;" horiz-adv-x="700" 
d="M222 913h107l69 -172h-93zM299 265l-254 434h109l195 -337l198 337h108l-257 -434v-265h-99v265z" />
    <glyph glyph-name="ygrave" unicode="&#x1ef3;" horiz-adv-x="587" 
d="M180 706h107l69 -172h-93zM77 -187v79q26 -10 64 -10q35 0 55 17.5t36 56.5l23 56l-210 468h104l160 -369l149 369h104l-216 -534q-30 -75 -71.5 -109.5t-107.5 -34.5q-54 0 -90 11z" />
    <glyph glyph-name="uni1EF4" unicode="&#x1ef4;" horiz-adv-x="700" 
d="M299 265l-254 434h109l195 -337l198 337h108l-257 -434v-265h-99v265zM308.5 -149q-17.5 17 -17.5 41t17.5 41t41.5 17q23 0 40 -17t17 -41t-17 -41t-40 -17q-24 0 -41.5 17z" />
    <glyph glyph-name="uni1EF5" unicode="&#x1ef5;" horiz-adv-x="587" 
d="M77 -187v79q26 -10 64 -10q35 0 55 17.5t36 56.5l23 56l-210 468h104l160 -369l149 369h104l-216 -534q-30 -75 -71.5 -109.5t-107.5 -34.5q-54 0 -90 11zM398.5 -146q-17.5 17 -17.5 41t17.5 41t41.5 17q23 0 40 -17t17 -41t-17 -41t-40 -17q-24 0 -41.5 17z" />
    <glyph glyph-name="uni1EF6" unicode="&#x1ef6;" horiz-adv-x="700" 
d="M298 813q47 0 69.5 12.5t22.5 40.5q0 23 -15.5 33.5t-50.5 10.5q-13 0 -33.5 -3.5t-29.5 -7.5v55q16 5 40 9t47 4q64 0 97.5 -26.5t33.5 -70.5q0 -37 -24 -62.5t-68 -31.5v-34h-89v71zM299 265l-254 434h109l195 -337l198 337h108l-257 -434v-265h-99v265z" />
    <glyph glyph-name="uni1EF7" unicode="&#x1ef7;" horiz-adv-x="587" 
d="M255 606q47 0 69.5 12.5t22.5 40.5q0 23 -15.5 33.5t-50.5 10.5q-13 0 -33.5 -3.5t-29.5 -7.5v55q16 5 40 9t47 4q64 0 97.5 -26.5t33.5 -70.5q0 -37 -24 -62.5t-68 -31.5v-34h-89v71zM77 -187v79q26 -10 64 -10q35 0 55 17.5t36 56.5l23 56l-210 468h104l160 -369
l149 369h104l-216 -534q-30 -75 -71.5 -109.5t-107.5 -34.5q-54 0 -90 11z" />
    <glyph glyph-name="uni1EF8" unicode="&#x1ef8;" horiz-adv-x="700" 
d="M159 828q31 43 98 43q22 0 42.5 -6t52.5 -19q27 -12 47.5 -18.5t42.5 -6.5q30 0 54 11.5t43 39.5v-86q-30 -42 -97 -42q-25 0 -47.5 6.5t-51.5 19.5q-29 12 -47 18t-39 6q-29 0 -53 -11.5t-45 -40.5v86zM299 265l-254 434h109l195 -337l198 337h108l-257 -434v-265h-99
v265z" />
    <glyph glyph-name="uni1EF9" unicode="&#x1ef9;" horiz-adv-x="587" 
d="M119 621q31 43 98 43q22 0 42.5 -6t52.5 -19q27 -12 47.5 -18.5t42.5 -6.5q30 0 54 11.5t43 39.5v-86q-30 -42 -97 -42q-25 0 -47.5 6.5t-51.5 19.5q-29 12 -47 18t-39 6q-29 0 -53 -11.5t-45 -40.5v86zM77 -187v79q26 -10 64 -10q35 0 55 17.5t36 56.5l23 56l-210 468
h104l160 -369l149 369h104l-216 -534q-30 -75 -71.5 -109.5t-107.5 -34.5q-54 0 -90 11z" />
    <glyph glyph-name="uni2007" unicode="&#x2007;" 
 />
    <glyph glyph-name="uni2010" unicode="&#x2010;" horiz-adv-x="442" 
d="M45 334h352v-83h-352v83z" />
    <glyph glyph-name="figuredash" unicode="&#x2012;" horiz-adv-x="681" 
d="M45 334h591v-83h-591v83z" />
    <glyph glyph-name="endash" unicode="&#x2013;" horiz-adv-x="646" 
d="M45 339h556v-83h-556v83z" />
    <glyph glyph-name="emdash" unicode="&#x2014;" horiz-adv-x="791" 
d="M45 339h701v-83h-701v83z" />
    <glyph glyph-name="uni2015" unicode="&#x2015;" horiz-adv-x="1013" 
d="M45 334h923v-83h-923v83z" />
    <glyph glyph-name="quoteleft" unicode="&#x2018;" horiz-adv-x="253" 
d="M123 714h85l-66 -195h-97z" />
    <glyph glyph-name="quoteright" unicode="&#x2019;" horiz-adv-x="256" 
d="M111 714h100l-79 -195h-87z" />
    <glyph glyph-name="quotesinglbase" unicode="&#x201a;" horiz-adv-x="256" 
d="M111 71h100l-79 -195h-87z" />
    <glyph glyph-name="quotedblleft" unicode="&#x201c;" horiz-adv-x="410" 
d="M124 714h82l-67 -195h-94zM283 714h82l-66 -195h-95z" />
    <glyph glyph-name="quotedblright" unicode="&#x201d;" horiz-adv-x="410" 
d="M111 714h95l-79 -195h-82zM270 714h95l-79 -195h-82z" />
    <glyph glyph-name="quotedblbase" unicode="&#x201e;" horiz-adv-x="410" 
d="M111 71h95l-79 -195h-82zM270 71h95l-79 -195h-82z" />
    <glyph glyph-name="dagger" unicode="&#x2020;" horiz-adv-x="536" 
d="M217 435h-172v85h172v179h102v-179h172v-85h-172v-505h-102v505z" />
    <glyph glyph-name="daggerdbl" unicode="&#x2021;" horiz-adv-x="536" 
d="M217 165h-172v86h172v197h-172v86h172v165h102v-165h172v-86h-172v-197h172v-86h-172v-165h-102v165z" />
    <glyph glyph-name="bullet" unicode="&#x2022;" horiz-adv-x="265" 
d="M70 235q-25 25 -25 62t25 62.5t62 25.5t62.5 -25.5t25.5 -62.5t-25.5 -62t-62.5 -25t-62 25z" />
    <glyph glyph-name="ellipsis" unicode="&#x2026;" horiz-adv-x="586" 
d="M58.5 13.5q-13.5 13.5 -13.5 33.5t13.5 34t33.5 14t34 -14t14 -34t-14 -33.5t-34 -13.5t-33.5 13.5zM258.5 13.5q-13.5 13.5 -13.5 33.5t13.5 34t33.5 14t34.5 -14t14.5 -34t-14.5 -33.5t-34.5 -13.5t-33.5 13.5zM459.5 13.5q-13.5 13.5 -13.5 33.5t13.5 34t33.5 14
t34 -14t14 -34t-14 -33.5t-34 -13.5t-33.5 13.5z" />
    <glyph glyph-name="perthousand" unicode="&#x2030;" horiz-adv-x="1289" 
d="M136 371.5q-42 24.5 -66.5 66.5t-24.5 92t24.5 92.5t66.5 67t92 24.5t92.5 -24.5t67 -67t24.5 -92.5t-24.5 -92t-67 -66.5t-92.5 -24.5t-92 24.5zM585 699h99l-387 -699h-99zM304.5 452q30.5 31 30.5 76q0 46 -30.5 77t-76.5 31t-76.5 -31t-30.5 -77q0 -45 30.5 -76
t76.5 -31t76.5 31zM561 9.5q-42 24.5 -66.5 66.5t-24.5 92t24.5 92.5t66.5 67t92 24.5t92.5 -24.5t67 -67t24.5 -92.5t-24.5 -92t-67 -66.5t-92.5 -24.5t-92 24.5zM968 9.5q-42 24.5 -66.5 66.5t-24.5 92t24.5 92.5t66.5 67t92 24.5t92.5 -24.5t67 -67t24.5 -92.5t-24.5 -92
t-67 -66.5t-92.5 -24.5t-92 24.5zM729 90q31 31 31 76q0 46 -31 77t-77 31q-45 0 -76 -31t-31 -77q0 -45 31 -76t76 -31q46 0 77 31zM1136 90q31 31 31 76q0 46 -31 77t-77 31q-45 0 -76 -31t-31 -77q0 -45 31 -76t76 -31q46 0 77 31z" />
    <glyph glyph-name="minute" unicode="&#x2032;" horiz-adv-x="176" 
d="M45 699h86v-187h-86v187z" />
    <glyph glyph-name="second" unicode="&#x2033;" horiz-adv-x="344" 
d="M45 699h86v-187h-86v187zM213 699h86v-187h-86v187z" />
    <glyph glyph-name="guilsinglleft" unicode="&#x2039;" horiz-adv-x="372" 
d="M45 308v30l232 197l50 -64l-176 -148l176 -147l-50 -64z" />
    <glyph glyph-name="guilsinglright" unicode="&#x203a;" horiz-adv-x="372" 
d="M45 176l176 147l-176 148l50 64l232 -197v-30l-232 -196z" />
    <glyph glyph-name="fraction" unicode="&#x2044;" horiz-adv-x="251" 
d="M265 714h106l-385 -729h-106z" />
    <glyph glyph-name="uni2070" unicode="&#x2070;" horiz-adv-x="397" 
d="M86 406q-41 47 -41 128t40.5 128t112.5 47t113 -47t41 -128t-41 -128t-113 -47q-71 0 -112 47zM259.5 451q22.5 28 22.5 83q0 54 -22.5 82t-61.5 28t-61.5 -28t-22.5 -82q0 -55 22.5 -83t61.5 -28t61.5 28z" />
    <glyph glyph-name="uni2074" unicode="&#x2074;" horiz-adv-x="332" 
d="M183 443h-158v53l151 203h84v-200h47v-56h-47v-73h-77v73zM193 499v126l-96 -126h96z" />
    <glyph glyph-name="uni2075" unicode="&#x2075;" horiz-adv-x="344" 
d="M91 365.5q-29 5.5 -46 15.5v65q18 -11 44 -17t50 -6q43 0 64 15t21 41q0 28 -19.5 41.5t-62.5 13.5q-39 0 -70 -11l-21 12l12 164h212v-60h-145l-4 -57q28 6 57 6q57 0 86.5 -28.5t29.5 -80.5q0 -54 -40 -86.5t-110 -32.5q-29 0 -58 5.5z" />
    <glyph glyph-name="uni2076" unicode="&#x2076;" horiz-adv-x="366" 
d="M82.5 399.5q-37.5 39.5 -37.5 110.5q0 96 46 147.5t123 51.5q38 0 61 -7v-55q-17 8 -55 8q-88 0 -103 -92q13 16 35.5 25t49.5 9q59 0 89 -32t30 -86q0 -53 -35 -86t-101 -33q-65 0 -102.5 39.5zM234 429q17 18 17 49t-16 49t-49 18q-30 0 -48.5 -19t-18.5 -48
q0 -30 18 -48.5t48 -18.5q32 0 49 18z" />
    <glyph glyph-name="uni2077" unicode="&#x2077;" horiz-adv-x="318" 
d="M200 639h-165v60h248v-45l-130 -284h-76z" />
    <glyph glyph-name="uni2078" unicode="&#x2078;" horiz-adv-x="360" 
d="M80.5 385.5q-35.5 25.5 -35.5 72.5q0 32 17.5 54.5t44.5 28.5q-24 10 -37 29.5t-13 45.5q0 44 33.5 68.5t89.5 24.5t89.5 -24.5t33.5 -68.5q0 -26 -13 -45.5t-37 -29.5q27 -6 44.5 -28.5t17.5 -54.5q0 -47 -35.5 -72.5t-99.5 -25.5t-99.5 25.5zM218.5 577.5
q14.5 13.5 14.5 34.5t-15 34t-38 13t-38 -13t-15 -34t14.5 -34.5t38.5 -13.5t38.5 13.5zM225 424q17 14 17 38q0 25 -17 39.5t-45 14.5t-45 -14.5t-17 -39.5q0 -24 17 -38t45 -14t45 14z" />
    <glyph glyph-name="uni2079" unicode="&#x2079;" horiz-adv-x="366" 
d="M91 367v54q18 -7 55 -7q88 0 103 92q-13 -17 -35 -26t-50 -9q-59 0 -89 32t-30 86q0 53 35 86.5t101 33.5q65 0 102.5 -39.5t37.5 -110.5q0 -97 -46 -148t-123 -51q-43 0 -61 7zM228.5 542.5q18.5 18.5 18.5 48.5q0 29 -18 47.5t-48 18.5q-32 0 -49 -18t-17 -48
q0 -32 16 -49.5t49 -17.5q30 0 48.5 18.5z" />
    <glyph glyph-name="uni207D" unicode="&#x207d;" horiz-adv-x="226" 
d="M59.5 437.5q-14.5 45.5 -14.5 96.5t14.5 96.5t41.5 78.5h80q-28 -36 -43 -81.5t-15 -93.5q0 -49 15 -94t43 -80h-80q-27 32 -41.5 77.5z" />
    <glyph glyph-name="uni207E" unicode="&#x207e;" horiz-adv-x="226" 
d="M87.5 440q14.5 45 14.5 94q0 48 -14.5 93.5t-42.5 81.5h80q27 -33 41.5 -78.5t14.5 -96.5t-15 -96t-41 -78h-80q28 35 42.5 80z" />
    <glyph glyph-name="uni207F" unicode="&#x207f;" horiz-adv-x="446" 
d="M50 699h76v-47q25 32 60 47t73 15q71 0 106.5 -36t35.5 -96v-222h-79v208q0 40 -19 61.5t-63 21.5q-72 0 -112 -64v-227h-78v339z" />
    <glyph glyph-name="uni2080" unicode="&#x2080;" horiz-adv-x="397" 
d="M86 -123q-41 47 -41 127q0 81 40.5 128t112.5 47t113 -47t41 -128t-41 -127.5t-113 -46.5q-71 0 -112 47zM259.5 -78q22.5 28 22.5 82q0 55 -22.5 83t-61.5 28t-61.5 -28t-22.5 -83q0 -54 22.5 -82t61.5 -28t61.5 28z" />
    <glyph glyph-name="uni2081" unicode="&#x2081;" horiz-adv-x="233" 
d="M131 90l-86 -62v72l92 69h71v-329h-77v250z" />
    <glyph glyph-name="uni2082" unicode="&#x2082;" horiz-adv-x="341" 
d="M45 -111l73 63q58 49 78 70.5t20 47.5q0 43 -54 43q-24 0 -53.5 -8.5t-48.5 -21.5v67q19 12 49.5 20t56.5 8q62 0 94.5 -29.5t32.5 -74.5q0 -25 -9.5 -44t-25 -35t-50.5 -45l-59 -51h147v-60h-251v50z" />
    <glyph glyph-name="uni2083" unicode="&#x2083;" horiz-adv-x="345" 
d="M45 -152v60q20 -10 48.5 -15.5t53.5 -5.5q73 0 73 45q0 24 -16.5 34.5t-56.5 10.5h-46v57h45q65 0 65 43t-67 43q-49 0 -92 -26v59q44 26 113 26q60 0 93 -25t33 -69q0 -57 -56 -79q65 -13 65 -79q0 -45 -36.5 -71t-101.5 -26q-75 0 -117 18z" />
    <glyph glyph-name="uni2084" unicode="&#x2084;" horiz-adv-x="332" 
d="M183 -88h-158v54l151 203h84v-200h47v-57h-47v-72h-77v72zM193 -31v126l-95 -126h95z" />
    <glyph glyph-name="uni2085" unicode="&#x2085;" horiz-adv-x="345" 
d="M91 -164.5q-29 5.5 -46 15.5v65q19 -11 45 -17t49 -6q43 0 63.5 15t20.5 41q0 29 -19 41.5t-62 12.5q-39 0 -70 -11l-21 13l12 164h212v-60h-145l-4 -57q29 6 57 6q58 0 87.5 -28.5t29.5 -80.5q0 -54 -40.5 -86.5t-110.5 -32.5q-29 0 -58 5.5z" />
    <glyph glyph-name="uni2086" unicode="&#x2086;" horiz-adv-x="369" 
d="M83.5 -130.5q-38.5 39.5 -38.5 110.5q0 97 46 148t123 51q38 0 61 -7v-55q-17 8 -55 8q-88 0 -103 -91q13 16 36 25t50 9q59 0 90 -32t31 -86q0 -53 -36 -86.5t-102 -33.5q-64 0 -102.5 39.5zM236 -101q18 18 18 49q0 32 -17 50t-49 18q-31 0 -50 -19t-19 -49
q0 -29 18.5 -48t48.5 -19q32 0 50 18z" />
    <glyph glyph-name="uni2087" unicode="&#x2087;" horiz-adv-x="318" 
d="M200 109h-165v60h248v-45l-130 -284h-76z" />
    <glyph glyph-name="uni2088" unicode="&#x2088;" horiz-adv-x="360" 
d="M80.5 -144.5q-35.5 25.5 -35.5 72.5q0 32 17.5 54.5t44.5 28.5q-24 10 -37 29.5t-13 45.5q0 44 33.5 68.5t89.5 24.5t89.5 -24.5t33.5 -68.5q0 -26 -13 -45.5t-37 -29.5q27 -6 44.5 -28.5t17.5 -54.5q0 -47 -35.5 -72.5t-99.5 -25.5t-99.5 25.5zM218.5 47.5
q14.5 13.5 14.5 34.5t-15 34t-38 13t-38 -13t-15 -34t14.5 -34.5t38.5 -13.5t38.5 13.5zM225 -106q17 14 17 38q0 25 -17 39.5t-45 14.5t-45 -14.5t-17 -39.5q0 -24 17 -38t45 -14t45 14z" />
    <glyph glyph-name="uni2089" unicode="&#x2089;" horiz-adv-x="369" 
d="M94 -163v54q17 -7 54 -7q88 0 104 91q-13 -17 -36 -26t-51 -9q-59 0 -89.5 32t-30.5 87q0 53 35.5 86.5t101.5 33.5q65 0 103.5 -40t38.5 -111q0 -96 -46.5 -147t-122.5 -51q-44 0 -61 7zM230 12q19 19 19 48q0 30 -18.5 48.5t-48.5 18.5q-32 0 -49.5 -18t-17.5 -49
t17 -49t49 -18q30 0 49 19z" />
    </font>
</defs>
</svg>
